Friday, 22.09.2017, 13:35
Welcome Guest | RSS
Main
Registration
Login




Vinyl [7]
Alternative [103]
Jazz [26]
Classic rock [179]
Classical [9]
Hard & Heavy [60]
Mainstream [53]
Hip-Hop [3]
Meditative [11]
New Beats [8]
Progressive [38]
Roots [25]
OST, Campilation [28]
DTS Releases [4]
Dvd Rip [7]
DVD [7]
Lossless HTTP [54]

Rate my site
Total of answers: 17


Total online: 1
Guests: 1
Users: 0

Login form

Main » 2010 » March » 19 » Ian Gillan - Live at Anaheim (2CD)(2008)
09:04
Ian Gillan - Live at Anaheim (2CD)(2008)

Artist: Ian Gillan t
Album: Live at Anaheim (2CD)
Year: 2008
Style: hard/classic rock
Format: eac-ape


Quote
Edel has set a February 25 UK releae date for "Live in Anaheim", a two-CD set from DEEP PURPLE frontman Ian Gillan comprising 20 tracks recorded live at the famous House Of Blues Club in Anaheim, California at the end of 2006. The release sees Gillan present the best of his career as a solo artist (with material from most of his albums), rarities (like "Have Love I'll Travel" he recorded on hard to find solo album by guitarist Michael Lee Jackson) and lots of DEEP PURPLE songs, including the mega classics "Smoke on The Water" and "Into The Fire" alongside tracks that PURPLE rarely played ("When a Blind Man Cries", "Knocking at Your Back Door", "Wasted Sunsets" and "Not Responsible")

01. Second Sight [0:01:21.72]
02. No Laughing In Heaven [0:04:27.35]
03. Into The Fire [0:04:42.44]
04. Hang Me Out To Dry [0:05:09.20]
05. Have Love I'll Travel [0:04:02.53]
06. Wasted Sunsets [0:04:32.16]
07. Not Responsible [0:05:47.05]
08. No Worries [0:06:46.56]
09. Rivers Of Chocolate [0:08:10.59]
10. Unchain Your Brain [0:03:30.29]

01. Bluesy Blue Sea [0:04:52.23]
02. Moonshine [0:03:21.32]
03. Texas State Of Mind [0:05:08.71]
04. Sugar Plum [0:05:18.68]
05. When A Blind Man Cries [0:05:12.33]
06. Men Of War [0:04:55.45]
07. Drum Solo [0:07:13.38]
08. Smoke On The Water [0:07:14.51]
09. Trouble [0:03:17.73]
10. Knocking At Your Back Door [0:07:15.62]

Code
Exact Audio Copy V0.99 prebeta 3 from 28. July 2007

EAC extraction logfile from 26. September 2008, 16:33

Ian Gillan / Live at Anaheim CD1

Used drive  : TSSTcorpCD/DVDW SH-W162L   Adapter: 1  ID: 1

Read mode               : Secure
Utilize accurate stream : Yes
Defeat audio cache      : Yes
Make use of C2 pointers : No

Read offset correction                      : 0
Overread into Lead-In and Lead-Out          : No
Fill up missing offset samples with silence : Yes
Delete leading and trailing silent blocks   : No
Null samples used in CRC calculations       : No
Used interface                    : Installed external ASPI interface

Used output format : Internal WAV Routines
Sample format      : 44.100 Hz; 16 Bit; Stereo

TOC of the extracted CD

       Track |   Start  |  Length  | Start sector | End sector   
      ---------------------------------------------------------
          1  |  0:00.00 |  1:21.72 |         0    |     6146     
          2  |  1:21.72 |  4:27.35 |      6147    |    26206     
          3  |  5:49.32 |  4:42.44 |     26207    |    47400     
          4  | 10:32.01 |  5:09.20 |     47401    |    70595     
          5  | 15:41.21 |  4:02.53 |     70596    |    88798     
          6  | 19:43.74 |  4:32.16 |     88799    |   109214     
          7  | 24:16.15 |  5:47.05 |    109215    |   135244     
          8  | 30:03.20 |  6:46.56 |    135245    |   165750     
          9  | 36:50.01 |  8:10.59 |    165751    |   202559     
         10  | 45:00.60 |  3:30.29 |    202560    |   218338     

Range status and errors

Selected range

       Filename C:\Ian.Gillan - Live.at.Anaheim.2CD..by.rat.eac.ape.Hq.covers.Israel-club.my1.ru\Ian.Gillan - Live.at.Anaheim.CD1.by.rat.eac.ape.Hq.covers.Israel-club.my1.ru.wav

       Peak level 99.4 %
       Range quality 99.9 %
       Copy CRC 9FCDAB1E
       Copy OK

No errors occurred

End of status report

Exact Audio Copy V0.99 prebeta 3 from 28. July 2007

EAC extraction logfile from 26. September 2008, 16:58

Ian Gillan / Live In Anaheim CD2

Used drive  : TSSTcorpCD/DVDW SH-W162L   Adapter: 1  ID: 1

Read mode               : Secure
Utilize accurate stream : Yes
Defeat audio cache      : Yes
Make use of C2 pointers : No

Read offset correction                      : 0
Overread into Lead-In and Lead-Out          : No
Fill up missing offset samples with silence : Yes
Delete leading and trailing silent blocks   : No
Null samples used in CRC calculations       : No
Used interface                    : Installed external ASPI interface

Used output format : Internal WAV Routines
Sample format      : 44.100 Hz; 16 Bit; Stereo

TOC of the extracted CD

       Track |   Start  |  Length  | Start sector | End sector   
      ---------------------------------------------------------
          1  |  0:00.00 |  4:52.23 |         0    |    21922     
          2  |  4:52.23 |  3:21.32 |     21923    |    37029     
          3  |  8:13.55 |  5:08.71 |     37030    |    60200     
          4  | 13:22.51 |  5:18.68 |     60201    |    84118     
          5  | 18:41.44 |  5:12.33 |     84119    |   107551     
          6  | 23:54.02 |  4:55.45 |    107552    |   129721     
          7  | 28:49.47 |  7:13.38 |    129722    |   162234     
          8  | 36:03.10 |  7:14.51 |    162235    |   194835     
          9  | 43:17.61 |  3:17.73 |    194836    |   209683     
         10  | 46:35.59 |  7:15.62 |    209684    |   242370     

Range status and errors

Selected range

       Filename C:\Ian.Gillan - Live.at.Anaheim.2CD..by.rat.eac.ape.Hq.covers.Israel-club.my1.ru\Ian Gillan - Live In Anaheim CD2.by.wav

       Peak level 99.4 %
       Range quality 100.0 %
       Copy CRC 22804EF5
       Copy OK

No errors occurred

End of status report

My WebPage

Category: Classic rock | Views: 599 | Added by: Rat | Rating: 0.0/0
Total comments: 0
Only registered users can add comments.
[ Registration | Login ]

«  March 2010  »
SuMoTuWeThFrSa
 123456
78910111213
14151617181920
21222324252627
28293031


  • Israel-club.my1.ru


  • Copyright MyCorp © 2017