Tuesday, 24.10.2017, 13:26
Welcome Guest | RSS
Main
Registration
Login




Vinyl [7]
Alternative [103]
Jazz [26]
Classic rock [179]
Classical [9]
Hard & Heavy [60]
Mainstream [53]
Hip-Hop [3]
Meditative [11]
New Beats [8]
Progressive [38]
Roots [25]
OST, Campilation [28]
DTS Releases [4]
Dvd Rip [7]
DVD [7]
Lossless HTTP [54]

Rate my site
Total of answers: 17


Total online: 1
Guests: 1
Users: 0

Login form

Main » 2010 » February » 22 » Huey Lewis & the News - The Heart of Rock & Roll (1992)
13:39
Huey Lewis & the News - The Heart of Rock & Roll (1992)

# Artist: Huey Lewis & the News
# Year: 1992
# Styles: Pop rock
# Album: The Heart of Rock & Roll
# Format: eac-ape

Quote
Ahh, how refreshing to hear some classic style American Rock music. I loved this album. It is packed full of great tracks, so much so I don't really have a favourite, although Power of love and Hip to be Square do stand out. After putting up with the never ending pop rubbish conveyer-belt it was like a breath of fresh air to hear something original like this. I am not by the way a middle aged guy who liked this music when he was a teenager, I am 19 and a student. I just wish there were a few more Huey's around today so we could balance things up a bit with the Pop world.

01. The Power Of Love [0:03:54.67]
02. Hip To Be Square [0:04:02.70]
03. Do You Believe In Love [0:03:27.73]
04. If This Is It [0:03:50.72]
05. Some Of My Lies Are True [0:03:21.38]
06. Workin' For a Livin' (Live) [0:04:01.45]
07. Bad Is Bad [0:03:47.20]
08. I Want a New Drug [0:03:33.05]
09. The Heart Of Rock & Roll [0:04:04.50]
10. Heart And Soul [0:04:10.70]
11. Jacob's Ladder [0:03:30.12]
12. Stuck With You [0:04:26.48]
13. Trouble In Paradise [0:03:10.17]
14. Walking On a Thin Line [0:04:02.03]
15. Perfect World [0:04:05.52]
16. Small World (Part One) [0:03:53.28]
17. Back In Time [0:04:19.15]

Code

Exact Audio Copy V0.99 prebeta 3 from 28. July 2007

EAC extraction logfile from 7. November 2008, 19:20

Huey Lewis And The News / The Heart Of Rock & Roll - The Best Of

Used drive  : Optiarc DVD RW AD-7170A   Adapter: 3  ID: 0

Read mode               : Secure
Utilize accurate stream : Yes
Defeat audio cache      : Yes
Make use of C2 pointers : No

Read offset correction                      : 48
Overread into Lead-In and Lead-Out          : No
Fill up missing offset samples with silence : Yes
Delete leading and trailing silent blocks   : No
Null samples used in CRC calculations       : Yes
Used interface                    : Installed external ASPI interface

Used output format : Internal WAV Routines
Sample format      : 44.100 Hz; 16 Bit; Stereo

TOC of the extracted CD

       Track |   Start  |  Length  | Start sector | End sector   
      ---------------------------------------------------------
          1  |  0:00.00 |  3:54.67 |         0    |    17616     
          2  |  3:54.67 |  4:02.70 |     17617    |    35836     
          3  |  7:57.62 |  3:27.73 |     35837    |    51434     
          4  | 11:25.60 |  3:50.72 |     51435    |    68756     
          5  | 15:16.57 |  3:21.38 |     68757    |    83869     
          6  | 18:38.20 |  4:01.45 |     83870    |   101989     
          7  | 22:39.65 |  3:47.20 |    101990    |   119034     
          8  | 26:27.10 |  3:33.05 |    119035    |   135014     
          9  | 30:00.15 |  4:04.50 |    135015    |   153364     
         10  | 34:04.65 |  4:10.70 |    153365    |   172184     
         11  | 38:15.60 |  3:30.12 |    172185    |   187946     
         12  | 41:45.72 |  4:26.48 |    187947    |   207944     
         13  | 46:12.45 |  3:10.17 |    207945    |   222211     
         14  | 49:22.62 |  4:02.03 |    222212    |   240364     
         15  | 53:24.65 |  4:05.52 |    240365    |   258791     
         16  | 57:30.42 |  3:53.28 |    258792    |   276294     
         17  | 61:23.70 |  4:19.15 |    276295    |   295734     

Range status and errors

Selected range

       Filename C:\Huey.Lewis.And.The News.-.The.Heart.Of.Rock & Roll - The Best.Of.by\Huey.Lewis.And.The News.-.The.Heart.Of.Rock & Roll - The Best.Of.by.rat.eac.ape.covers.Israel-club.my1.ru.wav

       Peak level 100.0 %
       Range quality 100.0 %
       Copy CRC 3BBDF3A8
       Copy OK

No errors occurred

End of status report

Download

Category: Classic rock | Views: 260 | Added by: Rat | Rating: 0.0/0
Total comments: 0
Only registered users can add comments.
[ Registration | Login ]

«  February 2010  »
SuMoTuWeThFrSa
 123456
78910111213
14151617181920
21222324252627
28


  • Israel-club.my1.ru


  • Copyright MyCorp © 2017