Monday, 26.06.2017, 19:21
Welcome Guest | RSS
Main
Registration
Login




Vinyl [7]
Alternative [103]
Jazz [26]
Classic rock [179]
Classical [9]
Hard & Heavy [60]
Mainstream [53]
Hip-Hop [3]
Meditative [11]
New Beats [8]
Progressive [38]
Roots [25]
OST, Campilation [28]
DTS Releases [4]
Dvd Rip [7]
DVD [7]
Lossless HTTP [54]

Rate my site
Total of answers: 17


Total online: 1
Guests: 1
Users: 0

Login form

Main » 2010 » April » 16 » Huey Lewis & The News - Small World (2000)
08:47
Huey Lewis & The News - Small World (2000)

Artist : Huey Lewis & The News
Album : Small World
Record Label : Chrysalis/Repertoire
Quality: Eac-ape
Genre : Pop rock
Year : 1988/2000

Quote

Small World was another platinum hit for Huey Lewis & the News, but the album was noticeably weaker than their previous three records. Lewis tries to position himself as a socially conscious rocker -- no less than three tracks have the word "world" in their title -- writing songs about the perilous state of the environment and urging everybody to live together peacefully, since "there ain't no livin' in a perfect world." Such sanctimonious and simple lyrical platitudes would be acceptable if the band had written a set of catchy pop to support them. Instead, the group decided to stretch out, exploring rootsy American music like the zydeco of "Bobo Tempo" and the bluesy "Old Antone's." None of the musical diversions work as well as the bouncy Top Ten hit "Perfect World." However, "Perfect World" is the only song that ranks with the group's best material -- as "Give Me the Keys (And I'll Drive You Crazy)" proves, the News fail to come up with hooks that rival their earlier hits.

01. Small World Part 1 [0:03:55.74]
02. Old Antone's [0:04:47.49]
03. Perfect World [0:04:07.04]
04. Bobo Tempo [0:04:39.26]
05. Small World Part 2 [0:04:06.67]
06. Walking With The Kid [0:03:59.19]
07. World To Me [0:05:21.10]
08. Better Be True [0:05:19.55]
09. Give Me The Keys [0:04:35.20]
10. Slammin' [0:04:32.50]

Code
Exact Audio Copy V0.99 prebeta 3 from 28. July 2007

EAC extraction logfile from 28. November 2007, 23:52

Huey Lewis & The News / Small World

Used drive  : TSSTcorpCD/DVDW SH-W162L   Adapter: 1  ID: 1

Read mode               : Secure
Utilize accurate stream : Yes
Defeat audio cache      : Yes
Make use of C2 pointers : No

Read offset correction                      : 6
Overread into Lead-In and Lead-Out          : No
Fill up missing offset samples with silence : Yes
Delete leading and trailing silent blocks   : No
Null samples used in CRC calculations       : Yes
Used interface                    : Installed external ASPI interface

Used output format : Internal WAV Routines
Sample format      : 44.100 Hz; 16 Bit; Stereo

TOC of the extracted CD

        Track |   Start  |  Length  | Start sector | End sector    
       ---------------------------------------------------------
           1  |  0:00.00 |  3:55.74 |         0    |    17698      
           2  |  3:55.74 |  4:47.49 |     17699    |    39272      
           3  |  8:43.48 |  4:07.04 |     39273    |    57801      
           4  | 12:50.52 |  4:39.26 |     57802    |    78752      
           5  | 17:30.03 |  4:06.67 |     78753    |    97269      
           6  | 21:36.70 |  3:59.19 |     97270    |   115213      
           7  | 25:36.14 |  5:21.10 |    115214    |   139298      
           8  | 30:57.24 |  5:19.55 |    139299    |   163278      
           9  | 36:17.04 |  4:35.20 |    163279    |   183923      
          10  | 40:52.24 |  4:32.50 |    183924    |   204373      

Range status and errors

Selected range

        Filename C:\Huey Lewis & The News - Small World.by.rat.DGpack.Covers.Israel-club.my1.ru\Huey Lewis & The News - Small World.by.rat.DGpack.Covers.Israel-club.my1.ru.wav

        Peak level 98.4 %
        Range quality 100.0 %
        Copy CRC 3821B80A
        Copy OK

No errors occurred

End of status report

LINK

Category: Classic rock | Views: 226 | Added by: Rat | Rating: 0.0/0
Total comments: 0
Only registered users can add comments.
[ Registration | Login ]

«  April 2010  »
SuMoTuWeThFrSa
    123
45678910
11121314151617
18192021222324
252627282930


  • Israel-club.my1.ru


  • Copyright MyCorp © 2017