Sunday, 20.08.2017, 19:02
Welcome Guest | RSS
Main
Registration
Login




Vinyl [7]
Alternative [103]
Jazz [26]
Classic rock [179]
Classical [9]
Hard & Heavy [60]
Mainstream [53]
Hip-Hop [3]
Meditative [11]
New Beats [8]
Progressive [38]
Roots [25]
OST, Campilation [28]
DTS Releases [4]
Dvd Rip [7]
DVD [7]
Lossless HTTP [54]

Rate my site
Total of answers: 17


Total online: 1
Guests: 1
Users: 0

Login form

Main » 2010 » February » 12 » Herbie Hancock - Future Shock (1983)
22:10
Herbie Hancock - Future Shock (1983)

Genre: jazz,jazz-funk, fusion, electro
Year: 1983
Format: flac.cue
Extractor: EAC v095pb5
Codec: FLAC 1.1.2
Size: 240 MB
Relaser: jurekogórek1
01. Rockit [0:05:28.46]
02. Future Shock [0:08:05.36]
03. TFS [0:05:47.20]
04. Earth Beat [0:05:13.60]
05. Autodrive [0:06:28.04]
06. Rough [0:06:57.69]

INFO:

Quote

Composed in 1983, Future Shock was a marvel in both Jazz fusion and synthesizer-based music. Hancock enlisted avant-garde bassist and record producer Bill Laswell to record an album that would go towards a post-modern direction, instead of his usual straight-ahead jazz. The result was a hip-hop influenced album, which ingeniously combined Hancock's keyboard mastery with Laswell's innovative arrangements and Grand Mixer DXT's turntablism. According to 1999 re-issue's liner notes, when Laswell went to buy speakers at a music equipment store he would insist on testing them by playing the demos of "Rockit" and "Earth Beat". While those songs were played through the speakers, passing by customers apparently liked what they heard and danced to the music. Soon after Laswell let Hancock know about the incident, eventually telling him: "We got something good here."
"Rockit", the album's big hit, was accompanied by one of the most successful music videos ever. The video, directed by Godley and Creme, featured dancing robots, moving around to the beat of the music and the turntable scratching. Hancock won several MTV Music Video awards in 1983, as well as the Grammy award for best R&B performance.
Unlike "Rockit", the track "Future Shock" (a song originally written and performed by Curtis Mayfield) was greatly underappreciated.

EAC's log:

Code

EAC extraction logfile from 24. March 2007, 16:17 for CD
Herbie Hancock / Future Shock

Used drive : PLEXTOR DVDR PX-716AL Adapter: 1 ID: 0
Read mode : Secure with NO C2, accurate stream, disable cache
Read offset correction : 30
Overread into Lead-In and Lead-Out : No

Used output format : C:\Program Files\FLAC\flac.exe (User Defined Encoder)
128 kBit/s
Additional command line options : -V -8 -T "artist=%a" -T "title=%t" -T "album=%g" -T "date=%y" -T "tracknumber=%n" -T "genre=%m" %s

Other options :
Fill up missing offset samples with silence : Yes
Delete leading and trailing silent blocks : No
Native Win32 interface for Win NT & 2000

Track 1
Filename C:\Converted Music\01 - Rockit.wav

Pre-gap length 0:00:02.00

Peak level 67.3 %
Track quality 100.0 %
Test CRC B5C9AA86
Copy CRC B5C9AA86
Copy OK

Track 2
Filename C:\Converted Music\02 - Future Shock.wav

Pre-gap length 0:00:01.80

Peak level 76.3 %
Track quality 100.0 %
Test CRC F2FCFD2E
Copy CRC F2FCFD2E
Copy OK

Track 3
Filename C:\Converted Music\03 - TFS.wav

Pre-gap length 0:00:01.46

Peak level 72.6 %
Track quality 100.0 %
Test CRC 1783855A
Copy CRC 1783855A
Copy OK

Track 4
Filename C:\Converted Music\04 - Earth Beat.wav

Pre-gap length 0:00:00.36

Peak level 84.1 %
Track quality 100.0 %
Test CRC 1D6E4A5D
Copy CRC 1D6E4A5D
Copy OK

Track 5
Filename C:\Converted Music\05 - Autodrive.wav

Pre-gap length 0:00:01.82

Peak level 66.0 %
Track quality 100.0 %
Test CRC 3EC54AF6
Copy CRC 3EC54AF6
Copy OK

Track 6
Filename C:\Converted Music\06 - Rough.wav

Pre-gap length 0:00:01.66

Peak level 65.2 %
Track quality 100.0 %
Test CRC 770D6FC8
Copy CRC 770D6FC8
Copy OK

No errors occured

End of status report

My WebPage

Category: Jazz | Views: 352 | Added by: Rat | Rating: 0.0/0
Total comments: 0
Only registered users can add comments.
[ Registration | Login ]

«  February 2010  »
SuMoTuWeThFrSa
 123456
78910111213
14151617181920
21222324252627
28


  • Israel-club.my1.ru


  • Copyright MyCorp © 2017