Tuesday, 27.06.2017, 16:02
Welcome Guest | RSS
Main
Registration
Login




Vinyl [7]
Alternative [103]
Jazz [26]
Classic rock [179]
Classical [9]
Hard & Heavy [60]
Mainstream [53]
Hip-Hop [3]
Meditative [11]
New Beats [8]
Progressive [38]
Roots [25]
OST, Campilation [28]
DTS Releases [4]
Dvd Rip [7]
DVD [7]
Lossless HTTP [54]

Rate my site
Total of answers: 17


Total online: 1
Guests: 1
Users: 0

Login form

Main » 2010 » October » 2 » Helix - Rockin' In My Outer Space (2004)
14:08
Helix - Rockin' In My Outer Space (2004)

Audio CD (February 15, 2005) 
Number of Discs: 1 
Format: EAC/APE 
Label: EMI/Dirty Dog Records 
Genre: Hard'n'heavy

Quote
Helix Is One Of Them Bands You Do Not Know? Till You Hear One Of There Songs .... Oh Yeah I know That Song Now .....i Know you all Heard Rock You, Heavy Metal Love & So On...And This Cd Is Just As Good As Those Songs...Rock On Helix...

1. Space Junk 
2. Rockin’ In My Outer Space 
3. It’S Hard To Feel The Sunshine When Your Heart Is Filled With Rain 
4. Six Feet Underground 
5. Lint & Pennies 
6. Everybody’S Got Their Cross To Bear 
7. Stumblin’ Blind 
8. King Of The Hill 
9. Ballad Of Sam & Mary 
10. Panic 
11. Sunny Summer Daze

Code
Exact Audio Copy V0.99 prebeta 4 from 23. January 2008 

EAC extraction logfile from 30. August 2010, 14:02 

Helix / Rockin' In My Outer Space 

Used drive  : Optiarc DVD RW AD-7170A   Adapter: 3  ID: 0 

Read mode               : Secure 
Utilize accurate stream : Yes 
Defeat audio cache      : Yes 
Make use of C2 pointers : No 

Read offset correction                      : 48 
Overread into Lead-In and Lead-Out          : No 
Fill up missing offset samples with silence : Yes 
Delete leading and trailing silent blocks   : No 
Null samples used in CRC calculations       : Yes 
Used interface                    : Installed external ASPI interface 

Used output format : Internal WAV Routines 
Sample format      : 44.100 Hz; 16 Bit; Stereo 

TOC of the extracted CD 

       Track |   Start  |  Length  | Start sector | End sector   
      --------------------------------------------------------- 
          1  |  0:00.00 |  1:30.23 |         0    |     6772     
          2  |  1:30.23 |  4:22.04 |      6773    |    26426     
          3  |  5:52.27 |  3:19.21 |     26427    |    41372     
          4  |  9:11.48 |  3:48.04 |     41373    |    58476     
          5  | 12:59.52 |  4:19.07 |     58477    |    77908     
          6  | 17:18.59 |  3:05.26 |     77909    |    91809     
          7  | 20:24.10 |  3:25.62 |     91810    |   107246     
          8  | 23:49.72 |  3:08.09 |    107247    |   121355     
          9  | 26:58.06 |  3:24.58 |    121356    |   136713     
         10  | 30:22.64 |  3:45.19 |    136714    |   153607     
         11  | 34:08.08 |  2:54.39 |    153608    |   166696     

Range status and errors 

Selected range 

       Filename C:\Documents and Settings\Мои документы\Helix - Rockin' In My Outer Space .eac.covers.by.ra\Helix - Rockin' In My Outer Space .eac.covers.by.rat.lossless-muz.ucoz.wav 

       Peak level 99.9 % 
       Range quality 100.0 % 
       Copy CRC 80956761 
       Copy OK 

No errors occurred 

End of status report

DOWNLOAD 

Category: Hard & Heavy | Views: 259 | Added by: Rat | Rating: 0.0/0
Total comments: 0
Only registered users can add comments.
[ Registration | Login ]

«  October 2010  »
SuMoTuWeThFrSa
     12
3456789
10111213141516
17181920212223
24252627282930
31


  • Israel-club.my1.ru


  • Copyright MyCorp © 2017