Thursday, 29.06.2017, 03:56
Welcome Guest | RSS
Main
Registration
Login




Vinyl [7]
Alternative [103]
Jazz [26]
Classic rock [179]
Classical [9]
Hard & Heavy [60]
Mainstream [53]
Hip-Hop [3]
Meditative [11]
New Beats [8]
Progressive [38]
Roots [25]
OST, Campilation [28]
DTS Releases [4]
Dvd Rip [7]
DVD [7]
Lossless HTTP [54]

Rate my site
Total of answers: 17


Total online: 1
Guests: 1
Users: 0

Login form

Main » 2010 » June » 25 » Gogol Bordello - Super Taranta! (2007)
13:32
Gogol Bordello - Super Taranta! (2007)

Artist: Gogol Bordello
Album: Super Taranta!
Released: 2007
Label: SideOneDummy (SD1334-2)
Genre: Gipsy Punk

Quote

Евгений Гудзь – маньяк. Не потому, что всегда говорит только про угар. А потому, что он единственный, кто смог создать то, что опошлили в конце концов «Вопли Видоплясова». А именно украино-цыганский панк-рок. Но при этом поет-то он по-английски. И выпускается на мажорных лейблах. И творит на сцене все, что захочет.

Но ведь под такую музыку и правда хочется творить что попало. Хочется прыгать и орать. Или лежать и смеяться. Или оголтело танцевать, вертя в руках собственную… предположим, тельняшку.

Или содрать с тела пиджак от Кельвина Кляйна, швырнуть об землю и плясать на нем с товарищами и подругами, пока не превратится творение буржуазного ума в марлю.Чтобы неповадно было им, богачам, посягать на творение пролетарского гнева. Ведь именно в музыке Gogol bordello есть то, что можно смело окрестить пролетарским. Или даже анархическим. Нестор Махно выиграл бы Гражданскую войну только тогда, если бы в рядах его был Евгений Гудзь. И над всей желто-голубой «ненькой» Украиной водрузилось бы знамя анархии. А господин Гудзь стал бы министром культуры. Со всеми вытекающими последствиями: водкой рекой, голыми девками и обязательным рок-н-ролльным угаром. Ведь именно это мерещится перед глазами, когда из колонок несется «Wonderlust king» или «Zina-Marina». Несмотря даже на то, что вокруг колонок стены стандартной хрущевки, а сквозь побелку потолка проступают контуры ржавой арматуры.

1. "Ultimate” - 3:29
2. "Wonderlust King” - 3:58
3. "Zina-Marina” - 4:19
4. "Super Theory Of Super Everything” - 2:56
5. "Harem In Tuscany (Taranta)” - 3:33
6. "Dub The Frequencies Of Love” - 6:15
7. "My Strange Uncles From Abroad” - 5:19
8. "Tribal Connection” - 5:05
9. "Forces Of Victory” - 5:23
10. "Alcohol” - 4:54
11. "Suddenly… (I Miss Carpaty)” - 5:36
12. "Your Country” - 4:15
13. "American Wedding” - 3:38
14. "Super Taranta!” - 6:44

Code
Exact Audio Copy V0.99 prebeta 3 from 28. July 2007

EAC extraction logfile from 28. September 2007, 22:40

Gogol Bordello / Super Taranta!

Used drive  : MATSHITADVD-RAM UJ-842   Adapter: 0  ID: 0

Read mode               : Secure
Utilize accurate stream : Yes
Defeat audio cache      : Yes
Make use of C2 pointers : No

Read offset correction                      : 102
Overread into Lead-In and Lead-Out          : No
Fill up missing offset samples with silence : Yes
Delete leading and trailing silent blocks   : No
Null samples used in CRC calculations       : Yes
Used interface                    : Native Win32 interface for Win NT & 2000

Used output format : Internal WAV Routines
Sample format      : 44.100 Hz; 16 Bit; Stereo

TOC of the extracted CD

        Track |   Start  |  Length  | Start sector | End sector
       ---------------------------------------------------------
           1  |  0:00.00 |  3:29.37 |         0    |    15711      
           2  |  3:29.37 |  3:58.03 |     15712    |    33564      
           3  |  7:27.40 |  4:19.20 |     33565    |    53009      
           4  | 11:46.60 |  2:55.65 |     53010    |    66199      
           5  | 14:42.50 |  3:33.12 |     66200    |    82186      
           6  | 18:15.62 |  6:15.30 |     82187    |   110341      
           7  | 24:31.17 |  5:19.50 |    110342    |   134316      
           8  | 29:50.67 |  5:05.20 |    134317    |   157211      
           9  | 34:56.12 |  5:23.53 |    157212    |   181489      
          10  | 40:19.65 |  4:54.47 |    181490    |   203586      
          11  | 45:14.37 |  5:36.58 |    203587    |   228844      
          12  | 50:51.20 |  4:15.62 |    228845    |   248031      
          13  | 55:07.07 |  3:37.60 |    248032    |   264366      
          14  | 58:44.67 |  6:44.50 |    264367    |   294716      

Range status and errors

Selected range

        Filename G:\torrents\torrents\Gogol Bordello - Super Taranta!\Gogol Bordello - Super Taranta!.wav

        Peak level 100.0 %
        Range quality 100.0 %
        Test CRC 7E556D57
        Copy CRC 7E556D57
        Copy OK

No errors occurred

End of status report

link

Category: Alternative | Views: 188 | Added by: Rat | Rating: 0.0/0
Total comments: 0
Only registered users can add comments.
[ Registration | Login ]

«  June 2010  »
SuMoTuWeThFrSa
  12345
6789101112
13141516171819
20212223242526
27282930


  • Israel-club.my1.ru


  • Copyright MyCorp © 2017