Sunday, 20.08.2017, 19:05
Welcome Guest | RSS
Main
Registration
Login




Vinyl [7]
Alternative [103]
Jazz [26]
Classic rock [179]
Classical [9]
Hard & Heavy [60]
Mainstream [53]
Hip-Hop [3]
Meditative [11]
New Beats [8]
Progressive [38]
Roots [25]
OST, Campilation [28]
DTS Releases [4]
Dvd Rip [7]
DVD [7]
Lossless HTTP [54]

Rate my site
Total of answers: 17


Total online: 1
Guests: 1
Users: 0

Login form

Main » 2010 » February » 11 » Gillan & Glover - Accidentally On Purpose (1988)
02:07
Gillan & Glover - Accidentally On Purpose (1988)
 

 
# Audio CD: Gillan & Glover - Accidentally On Purpose
# Original Release Date: 1988
# Number of Discs: 1
# Format: Eac-Flac
# Label: Virgin
# Gebre: Classic Rock
Quote

The whole career of Ian Gillan is very different and diverse, as throughout the years with Episode Six, Deep Purple, Sabbath and solo albums he managed (somehow) to embrace very different styles. Yet one thing constant in his work is quality. Whether he sings jazz rock or his signature hard and heavy, his music is always great and unpredictable.
While Deep Purple was in the middle of "House of Blue Light" concert tours, settling their ongoing internal battles and routine studio recordings, Gilland and Glover decided to take a little time off and head back to the studio. The material they had in mind was a huge step aside... As it was nothing that could ever fit the shoes of musical style of Deep Purple. The child that was born accidentaly on purpose showed another leap in their collaborative musical talent. The album that featured a very different side of Ian Gillan and Roger Glover.
Better? Worse? Different. If you expect to hear heavy riffs and Gillan's signature screaming, don't buy this album. Go get "Toolbox" or some of Purple's early albums. If however you are more open-minded to a very professionaly done, artistic and diverse music, you're probably in the right place. "Accidentally on purpose" features rhythm'n'blues, rock'n'roll, funk and jazz rock and of course reveals the soft side of Gillan's voice.
"Clouds and rain", "She took my breath away" are very nice and soft, "Lonely Avenue" is back into 50's-60's... "Can't believe you wanna leave" and "Via Miami" are Elvis-style rock and roll. "Evil eye" and "Telephone box" are more jazzy... Oh, of course, there is a country song: "I thought no"... Well, even with this album they couldn't stay far from hard rock. Probably the only heavy and intense track on the album is "I can't dance to that".



01. Clouds And Rain [0:04:02.72]
02. Evil Eye [0:04:12.55]
03. She Took My Breath Away [0:04:35.35]
04. Dislocated [0:03:23.60]
05. Via Miami [0:05:00.00]
06. I Can't Dance To That [0:04:25.00]
07. I Can't Believe You Wanna Leave [0:03:10.25]
08. Lonely Avenue [0:03:07.73]
09. Telephone Box [0:05:17.30]
10. I Thought No [0:03:34.62]
11. Cayman Island [0:03:55.45]
12. The Purple People Eater [0:02:34.68]
13. Chet [0:04:16.52]
Code
Exact Audio Copy V0.99 prebeta 4 from 23. January 2008

EAC extraction logfile from 3. June 2009, 19:41

Gillan & Glover / Accidentally On Purpose

Used drive : Optiarc DVD RW AD-7170A Adapter: 3 ID: 0

Read mode : Secure
Utilize accurate stream : Yes
Defeat audio cache : Yes
Make use of C2 pointers : No

Read offset correction : 48
Overread into Lead-In and Lead-Out : No
Fill up missing offset samples with silence : Yes
Delete leading and trailing silent blocks : No
Null samples used in CRC calculations : Yes
Used interface : Installed external ASPI interface

Used output format : Internal WAV Routines
Sample format : 44.100 Hz; 16 Bit; Stereo

TOC of the extracted CD

Track | Start | Length | Start sector | End sector
---------------------------------------------------------
1 | 0:00.00 | 4:02.72 | 0 | 18221
2 | 4:02.72 | 4:12.55 | 18222 | 37176
3 | 8:15.52 | 4:35.35 | 37177 | 57836
4 | 12:51.12 | 3:23.60 | 57837 | 73121
5 | 16:14.72 | 5:00.00 | 73122 | 95621
6 | 21:14.72 | 4:25.00 | 95622 | 115496
7 | 25:39.72 | 3:10.25 | 115497 | 129771
8 | 28:50.22 | 3:07.73 | 129772 | 143869
9 | 31:58.20 | 5:17.30 | 143870 | 167674
10 | 37:15.50 | 3:34.62 | 167675 | 183786
11 | 40:50.37 | 3:55.45 | 183787 | 201456
12 | 44:46.07 | 2:34.68 | 201457 | 213074
13 | 47:21.00 | 4:16.52 | 213075 | 232326

Range status and errors

Selected range

Filename C:\Documents and Settings\Мои документы\Gillan.&.Glover.-.Accidentally.On.Purpose.by.rat.eac.flac.covers.Israel-club.my1.ru\Gillan.&.Glover.-.Accidentally.On.Purpose.by.rat.eac.flac.covers.Israel-club.my1.ru.wav

Peak level 100.0 %
Range quality 100.0 %
Copy CRC EBA0BC1A
Copy OK

No errors occurred

End of status report


My WebPage
Category: Classic rock | Views: 307 | Added by: Rat | Rating: 0.0/0
Total comments: 0
Only registered users can add comments.
[ Registration | Login ]

«  February 2010  »
SuMoTuWeThFrSa
 123456
78910111213
14151617181920
21222324252627
28


  • Israel-club.my1.ru


  • Copyright MyCorp © 2017