Sunday, 25.06.2017, 10:57
Welcome Guest | RSS
Main
Registration
Login




Vinyl [7]
Alternative [103]
Jazz [26]
Classic rock [179]
Classical [9]
Hard & Heavy [60]
Mainstream [53]
Hip-Hop [3]
Meditative [11]
New Beats [8]
Progressive [38]
Roots [25]
OST, Campilation [28]
DTS Releases [4]
Dvd Rip [7]
DVD [7]
Lossless HTTP [54]

Rate my site
Total of answers: 17


Total online: 3
Guests: 3
Users: 0

Login form

Main » 2011 » April » 20 » Gary Moore - Dark Days in Paradise (1997) [Remastered 2003]
08:55
Gary Moore - Dark Days in Paradise (1997) [Remastered 2003]

Quality:EAC Rip | WavPack (image+.cue+log) 
Size: 544 MB 
Genre: Blues Rock 
Label: Virgin Records (7243 5 83671 2 6) 
Rip by: Гордый 

Quote
By the late '90s, guitarist Gary Moore was at a career crossroads. Should he continue on the path that brought him his biggest stateside success (Still Got the Blues), or try something a bit contemporary? The ex-Thin Lizzy member decided on the latter, issuing Dark Days in Paradise, an album that saw Moore utilize electronic beats and, of course, his trademark soaring guitar work. 
Robert William Gary Moore (4 April 1952 – 6 February 2011)

Tracklist: 
01. One Good Reason 
02. Cold Wind Blows 
03. I Have Found My Love In You 
04. One Fine Day 
05. Like Angels 
06. What Are We Here For 
07. Always There For You 
08. Afraid Of Tomorrow 
09. Where Did We Go Wrong 
10. Business As Usual 
11. Dark Days In Paradise (Bonus track) 
12. Burning In Our Hearts (Bonus track) 
13. There Must Be A Way (Bonus track)

Code
Exact Audio Copy V1.0 beta 1 from 15. November 2010 

EAC extraction logfile from 18. April 2011, 11:59 

Moore Gary / Dark days in Paradise 

Used drive : HL-DT-STDVD-RAM GH22LP20 Adapter: 4 ID: 1 

Read mode : Secure 
Utilize accurate stream : Yes 
Defeat audio cache : Yes 
Make use of C2 pointers : No 

Read offset correction : 102 
Overread into Lead-In and Lead-Out : No 
Fill up missing offset samples with silence : Yes 
Delete leading and trailing silent blocks : No 
Null samples used in CRC calculations : Yes 
Used interface : Installed external ASPI interface 

Used output format : Пользовательский кодировщик 
Selected bitrate : 896 kBit/s 
Quality : High 
Add ID3 tag : No 
Command line compressor : C:\Program Files (x86)\Exact Audio Copy\WAV Pack\wavpack.exe 
Additional command line options : -hlmx2 %s 

TOC of the extracted CD 

Track | Start | Length | Start sector | End sector  
--------------------------------------------------------- 
1 | 0:00.00 | 3:05.70 | 0 | 13944  
2 | 3:05.70 | 5:29.55 | 13945 | 38674  
3 | 8:35.50 | 4:56.00 | 38675 | 60874  
4 | 13:31.50 | 5:00.20 | 60875 | 83394  
5 | 18:31.70 | 7:31.70 | 83395 | 117289  
6 | 26:03.65 | 5:45.67 | 117290 | 143231  
7 | 31:49.57 | 4:34.60 | 143232 | 163841  
8 | 36:24.42 | 6:43.60 | 163842 | 194126  
9 | 43:08.27 | 6:35.33 | 194127 | 223784  
10 | 49:43.60 | 13:37.30 | 223785 | 285089  
11 | 63:21.15 | 3:33.47 | 285090 | 301111  
12 | 66:54.62 | 6:03.55 | 301112 | 328391  
13 | 72:58.42 | 4:05.15 | 328392 | 346781  

Range status and errors 

Selected range 

Filename X:\Releases RAW\Moore Gary - Dark days in Paradise\Moore Gary - Dark days in Paradise.wav 

Peak level 99.2 % 
Extraction speed 0.1 X 
Range quality 100.0 % 
Test CRC 36093DEC 
Copy CRC 36093DEC 
Copy OK 

No errors occurred 

AccurateRip summary 

Track 1 cannot be verified as accurate (confidence 9) [43AD4E1D], AccurateRip returned [9B05EB6F] 
Track 2 cannot be verified as accurate (confidence 9) [31042D18], AccurateRip returned [5067CA95] 
Track 3 cannot be verified as accurate (confidence 8) [CA261725], AccurateRip returned [C0CEA319] 
Track 4 cannot be verified as accurate (confidence 8) [754A4368], AccurateRip returned [7B8E98B3] 
Track 5 cannot be verified as accurate (confidence 8) [DBD21B44], AccurateRip returned [9DB15829] 
Track 6 cannot be verified as accurate (confidence 8) [C56EAD46], AccurateRip returned [DC842A15] 
Track 7 cannot be verified as accurate (confidence 8) [C92A354F], AccurateRip returned [A8BF9CA1] 
Track 8 cannot be verified as accurate (confidence 8) [F11A0F42], AccurateRip returned [81BC2240] 
Track 9 cannot be verified as accurate (confidence 8) [065FE37E], AccurateRip returned [2269F8BB] 
Track 10 cannot be verified as accurate (confidence 8) [80E754B7], AccurateRip returned [97A91DB5] 
Track 11 cannot be verified as accurate (confidence 8) [1679986D], AccurateRip returned [FAB07605] 
Track 12 cannot be verified as accurate (confidence 8) [FFCBCBC6], AccurateRip returned [20220D20] 
Track 13 cannot be verified as accurate (confidence 8) [6CC97B53], AccurateRip returned [DDDDC84C] 

No tracks could be verified as accurate 
You may have a different pressing from the one(s) in the database 

End of status report 

==== Log checksum 9CDA0AC8607C88307944B22581640AD8C6D1D682B56CD567DADD8DCA8500C23A ====

http://www.filesonic.com/file/789955881/GM-DDiP%2097.rar

http://www.fileserve.com/file/tK5vU7K

http://turbobit.net/w7a0qhuanmod.html

covers

http://www.filesonic.com/file/789268261/GM-DDiP%2097%20sc.rar 
http://www.fileserve.com/file/CyYnN4V 
http://turbobit.net/608pk32me2pi.html

Category: Lossless HTTP | Views: 389 | Added by: Rat | Rating: 0.0/0
Total comments: 0
Only registered users can add comments.
[ Registration | Login ]

«  April 2011  »
SuMoTuWeThFrSa
     12
3456789
10111213141516
17181920212223
24252627282930


  • Israel-club.my1.ru


  • Copyright MyCorp © 2017