Monday, 26.06.2017, 19:27
Welcome Guest | RSS
Main
Registration
Login




Vinyl [7]
Alternative [103]
Jazz [26]
Classic rock [179]
Classical [9]
Hard & Heavy [60]
Mainstream [53]
Hip-Hop [3]
Meditative [11]
New Beats [8]
Progressive [38]
Roots [25]
OST, Campilation [28]
DTS Releases [4]
Dvd Rip [7]
DVD [7]
Lossless HTTP [54]

Rate my site
Total of answers: 17


Total online: 1
Guests: 1
Users: 0

Login form

Main » 2010 » March » 29 » Gary Brooker - Echoes In The Night (1985)
08:48
Gary Brooker - Echoes In The Night (1985)

Style: Rock
Year: 1985
Country: Uk
Format: Lossless
Quality: eac-ape

рзелиз от

Quote
Echoes In The Night was the album for all those fans who had been waiting eight years for a Procol Harum reunion. In addition to Gary Brooker's singing and keyboard work, it featured Procol organist Matthew Fisher, lyricist Keith Reid, and drummer B.J. Wilson. They didn't appear on every track, but when they got together, notably on the title song (which also featured Eric Clapton), "Saw The Fire," and especially the ambitious "Ghost Train," Procol Harum was back. Even when Fisher and Reid weren't collaborating, as on "Mr. Blue Day," Brooker aspired to a Procol approach, adding The National Philharmonic Orchestra for that old art-rock flavor. Like Brooker's other solo albums, this one didn't get much attention, but for anyone who was paying attention, Echoes In The Night was a welcome reminder of what the band could do.

01. Count Me Out [0:04:15.72]
02. Two Fools In Love [0:03:57.73]
03. Echoes In The Night [0:04:40.07]
04. Ghost Train [0:04:22.38]
05. Mr. Blue Day [0:03:46.50]
06. Saw The Fire [0:05:17.02]
07. Long Goodbye [0:03:49.55]
08. Hear What You're Sayin' [0:05:24.05]
09. Missing Person [0:03:43.25]
10. Trick Of The Night [0:02:49.18]
11. Summer Nights [0:04:07.10]

Code
Exact Audio Copy V0.99 prebeta 3 from 28. July 2007

EAC extraction logfile from 5. September 2008, 17:21

Gary Brooker / Echoes In The Night

Used drive  : TSSTcorpCD/DVDW SH-W162L   Adapter: 1  ID: 1

Read mode               : Secure
Utilize accurate stream : Yes
Defeat audio cache      : Yes
Make use of C2 pointers : No

Read offset correction                      : 6
Overread into Lead-In and Lead-Out          : No
Fill up missing offset samples with silence : Yes
Delete leading and trailing silent blocks   : No
Null samples used in CRC calculations       : Yes
Used interface                    : Installed external ASPI interface

Used output format : Internal WAV Routines
Sample format      : 44.100 Hz; 16 Bit; Stereo

TOC of the extracted CD

       Track |   Start  |  Length  | Start sector | End sector   
      ---------------------------------------------------------
          1  |  0:00.00 |  4:15.72 |         0    |    19196     
          2  |  4:15.72 |  3:57.73 |     19197    |    37044     
          3  |  8:13.70 |  4:40.07 |     37045    |    58051     
          4  | 12:54.02 |  4:22.38 |     58052    |    77739     
          5  | 17:16.40 |  3:46.50 |     77740    |    94739     
          6  | 21:03.15 |  5:17.02 |     94740    |   118516     
          7  | 26:20.17 |  3:49.55 |    118517    |   135746     
          8  | 30:09.72 |  5:24.05 |    135747    |   160051     
          9  | 35:34.02 |  3:43.25 |    160052    |   176801     
         10  | 39:17.27 |  2:49.18 |    176802    |   189494     
         11  | 42:06.45 |  4:07.10 |    189495    |   208029     

Range status and errors

Selected range

       Filename C:\Gary Brooker - Echoes In The Night..by.rat.eac.ape.covers.Israel-club.my1.ru\Gary Brooker - Echoes In The Night..by.rat.eac.ape.covers.Israel-club.my1.ru.wav

       Peak level 100.0 %
       Range quality 99.8 %
       Copy CRC B6445993
       Copy OK

No errors occurred

     
AccurateRip summary
     
Track  1  not present in database
Track  2  not present in database
Track  3  not present in database
Track  4  not present in database
Track  5  not present in database
Track  6  not present in database
Track  7  not present in database
Track  8  not present in database
Track  9  not present in database
Track 10  not present in database
Track 11  not present in database
     
None of the tracks are present in the AccurateRip database

End of status report

My WebPage

Category: Classic rock | Views: 439 | Added by: Rat | Rating: 0.0/0
Total comments: 0
Only registered users can add comments.
[ Registration | Login ]

«  March 2010  »
SuMoTuWeThFrSa
 123456
78910111213
14151617181920
21222324252627
28293031


  • Israel-club.my1.ru


  • Copyright MyCorp © 2017