Saturday, 19.08.2017, 13:18
Welcome Guest | RSS
Main
Registration
Login




Vinyl [7]
Alternative [103]
Jazz [26]
Classic rock [179]
Classical [9]
Hard & Heavy [60]
Mainstream [53]
Hip-Hop [3]
Meditative [11]
New Beats [8]
Progressive [38]
Roots [25]
OST, Campilation [28]
DTS Releases [4]
Dvd Rip [7]
DVD [7]
Lossless HTTP [54]

Rate my site
Total of answers: 17


Total online: 1
Guests: 1
Users: 0

Login form

Main » 2010 » February » 15 » Frankie Miller - Love Letters (1996)
22:50
Frankie Miller - Love Letters (1996)

Category: rock
Label: Disky
Format: eac-ape
Size: 333mb
Street Date: Feb 27, 1996

Quote
Blue-eyed soul singer Frankie Miller made his name on the English pub rock circuit of the early '70s, and spent around a decade and a half cutting albums of traditional R&B, rock & roll, and country-rock. In addition to his recorded legacy as an avatar of American roots music, his original material was covered by artists from the worlds of rock, blues, and country, from Bob Seger and Bonnie Tyler to Lou Ann Barton and the Bellamy Brothers. And Miller himself scored a surprise U.K. Top Ten smash in 1978 with "Darlin'," giving his likable, soulful style the popular airing many fans felt it deserved all along.

Frankie Miller was born November 2, 1949, in Glasgow, Scotland; he began singing with local bands beginning in 1967, in a style influenced by American soul singers like Sam Cooke, Ray Charles, and Otis Redding. After a few years, he moved to the more fertile music scene in London, where he soon met ex-Procol Harum guitarist Robin Trower in the summer of 1971. Impressed with Miller's talents as a raw soul belter in the vein of a Rod Stewart or Joe Cocker, Trower offered him a job as lead vocalist of his new band Jude... http://allmusic.com/cg/amg.dll?p=amg&sql=11:hjfyxq8gldae~T1

01. Love Letters [0:02:57.45]
02. Take Good Care Of Yourself [0:03:14.10]
03. Jealous Guy [0:04:39.25]
04. A Fool In Love [0:03:01.10]
05. All My Love To You [0:05:35.12]
06. The Heartbreak [0:04:00.60]
07. I Can't Change It [0:03:07.20]
08. Candlelight Sonata In F Major [0:02:31.73]
09. Just Like Tom Thumb's Blues [0:04:00.65]
10. You'll Be In My Mind [0:03:30.62]
11. Good Time Love [0:05:00.10]
12. Love Waves [0:02:57.00]
13. Is This Love [0:02:52.38]
14. Falling In Love With You [0:04:35.70]
15. Everytime A Teardrop Falls [0:02:35.25]
16. Highlife/Brickyard Blues [0:04:37.22]

Code

Exact Audio Copy V0.99 prebeta 4 from 23. January 2008

EAC extraction logfile from 3. March 2009, 17:56

Frankie Miller / Love Letters

Used drive  : Optiarc DVD RW AD-7170A   Adapter: 3  ID: 0

Read mode               : Secure
Utilize accurate stream : Yes
Defeat audio cache      : Yes
Make use of C2 pointers : No

Read offset correction                      : 48
Overread into Lead-In and Lead-Out          : No
Fill up missing offset samples with silence : Yes
Delete leading and trailing silent blocks   : No
Null samples used in CRC calculations       : Yes
Used interface                    : Installed external ASPI interface

Used output format : Internal WAV Routines
Sample format      : 44.100 Hz; 16 Bit; Stereo

TOC of the extracted CD

       Track |   Start  |  Length  | Start sector | End sector   
      ---------------------------------------------------------
          1  |  0:00.00 |  2:57.45 |         0    |    13319     
          2  |  2:57.45 |  3:14.10 |     13320    |    27879     
          3  |  6:11.55 |  4:39.25 |     27880    |    48829     
          4  | 10:51.05 |  3:01.10 |     48830    |    62414     
          5  | 13:52.15 |  5:35.12 |     62415    |    87551     
          6  | 19:27.27 |  4:00.60 |     87552    |   105611     
          7  | 23:28.12 |  3:07.20 |    105612    |   119656     
          8  | 26:35.32 |  2:31.73 |    119657    |   131054     
          9  | 29:07.30 |  4:00.65 |    131055    |   149119     
         10  | 33:08.20 |  3:30.62 |    149120    |   164931     
         11  | 36:39.07 |  5:00.10 |    164932    |   187441     
         12  | 41:39.17 |  2:57.00 |    187442    |   200716     
         13  | 44:36.17 |  2:52.38 |    200717    |   213654     
         14  | 47:28.55 |  4:35.70 |    213655    |   234349     
         15  | 52:04.50 |  2:35.25 |    234350    |   245999     
         16  | 54:40.00 |  4:37.22 |    246000    |   266796     

Range status and errors

Selected range

       Filename C:\Frankie Miller - Love Letters.by.rat.eac.ape.covers.Israel-club.my1.ru\Frankie Miller - Love Letters.by.rat.eac.ape.covers.Israel-club.my1.ru.wav

       Peak level 94.4 %
       Range quality 100.0 %
       Copy CRC CF08E55B
       Copy OK

No errors occurred

End of status report

My WebPage

Category: Classic rock | Views: 253 | Added by: Rat | Rating: 0.0/0
Total comments: 0
Only registered users can add comments.
[ Registration | Login ]

«  February 2010  »
SuMoTuWeThFrSa
 123456
78910111213
14151617181920
21222324252627
28


  • Israel-club.my1.ru


  • Copyright MyCorp © 2017