Wednesday, 20.09.2017, 15:02
Welcome Guest | RSS
Main
Registration
Login




Vinyl [7]
Alternative [103]
Jazz [26]
Classic rock [179]
Classical [9]
Hard & Heavy [60]
Mainstream [53]
Hip-Hop [3]
Meditative [11]
New Beats [8]
Progressive [38]
Roots [25]
OST, Campilation [28]
DTS Releases [4]
Dvd Rip [7]
DVD [7]
Lossless HTTP [54]

Rate my site
Total of answers: 17


Total online: 1
Guests: 1
Users: 0

Login form

Main » 2010 » November » 13 » FOGHAT - FOGHAT (1973)
18:44
FOGHAT - FOGHAT (1973)

Released March, 1973 
Recorded 1973 
Genre Rock, Hard rock, Blues rock 
Length 32:44 
Quality eac-ape 
Producer Tom Dawes

Quote
Foghat is the second album, as well as the second self-titled album by the band Foghat. It was released in March 1973, and is generally known by fans as Rock and Roll, because of its cover picture depicting a rock and a (bread) roll. 

"Ride, Ride, Ride" - 4:24 
"Feel So Bad" - 5:09 
"Long Way to Go" - 5:07 
"It's Too Late" - 3:52 
"What a Shame" - 3:57 
"Helpin' Hand" - 4:41 
"Road Fever" - 4:22 
"She's Gone" - 3:12 
"Couldn't Make Her Stay" - 1:57

Code
Exact Audio Copy V0.99 prebeta 4 from 23. January 2008 

EAC extraction logfile from 9. November 2010, 20:05 

Foghat / Foghat 

Used drive  : TSSTcorpCD/DVDW SH-W162L   Adapter: 3  ID: 1 

Read mode               : Secure 
Utilize accurate stream : Yes 
Defeat audio cache      : Yes 
Make use of C2 pointers : No 

Read offset correction                      : 6 
Overread into Lead-In and Lead-Out          : No 
Fill up missing offset samples with silence : Yes 
Delete leading and trailing silent blocks   : No 
Null samples used in CRC calculations       : Yes 
Used interface                    : Installed external ASPI interface 

Used output format : Internal WAV Routines 
Sample format      : 44.100 Hz; 16 Bit; Stereo 

TOC of the extracted CD 

       Track |   Start  |  Length  | Start sector | End sector   
      --------------------------------------------------------- 
          1  |  0:00.00 |  4:24.12 |         0    |    19811     
          2  |  4:24.12 |  5:09.00 |     19812    |    42986     
          3  |  9:33.12 |  5:07.00 |     42987    |    66011     
          4  | 14:40.12 |  5:45.00 |     66012    |    91886     
          5  | 20:25.12 |  3:52.00 |     91887    |   109286     
          6  | 24:17.12 |  4:41.00 |    109287    |   130361     
          7  | 28:58.12 |  4:22.50 |    130362    |   150061     
          8  | 33:20.62 |  3:12.25 |    150062    |   164486     
          9  | 36:33.12 |  1:57.13 |    164487    |   173274     

Range status and errors 

Selected range 

       Filename C:\Documents and Settings\Мои документы\Foghat - Foghat.eac.covers.by.rat.lossless-muz.ucoz.com\Foghat - Foghat.eac.covers.by.rat.lossless-muz.ucoz.wav 

       Peak level 100.0 % 
       Range quality 100.0 % 
       Copy CRC 9FFD3A6C 
       Copy OK 

No errors occurred 

End of status report

download 
Category: Classic rock | Views: 279 | Added by: Rat | Rating: 0.0/0
Total comments: 0
Only registered users can add comments.
[ Registration | Login ]

«  November 2010  »
SuMoTuWeThFrSa
 123456
78910111213
14151617181920
21222324252627
282930


  • Israel-club.my1.ru


  • Copyright MyCorp © 2017