Thursday, 29.06.2017, 04:10
Welcome Guest | RSS
Main
Registration
Login




Vinyl [7]
Alternative [103]
Jazz [26]
Classic rock [179]
Classical [9]
Hard & Heavy [60]
Mainstream [53]
Hip-Hop [3]
Meditative [11]
New Beats [8]
Progressive [38]
Roots [25]
OST, Campilation [28]
DTS Releases [4]
Dvd Rip [7]
DVD [7]
Lossless HTTP [54]

Rate my site
Total of answers: 17


Total online: 1
Guests: 1
Users: 0

Login form

Main » 2010 » April » 2 » Flash and the Pan - Lights in the Night (1980)
12:43
Flash and the Pan - Lights in the Night (1980)

Artist: Flash and the Pan
Album: Lights in the Night
Released: 1980
Source: Epic Records
Genre: Rock
Format: eac-ape.covers

Quote
The best-known alter ego of the Harry Vanda/George Young songwriting team (the creative force behind the Easybeats), Flash and the Pan began simply as a between-production project in 1976. By 1979, the project had turned out a novelty hit with the single "Hey St. Peter." A second single, "Down Among the Dead," also became a hit throughout Australia and Europe, inspiring the release of the album Flash and the Pan. American radio began playing import copies which led to a deal with Epic Records. The album would soon reach the Top 100 in the U.S. despite the lack of a supporting tour. They released two more albums with some minor success in the U.K., but failed to make much impact due to the part-time nature of the project.

01 Media Man [0:05:53.62]
02 Headhunter [0:05:53.50]
03 Restless [0:03:46.02]
04 Welcome To The Universe [0:08:46.49]
05 Make Your Own Cross [0:05:28.17]
06 Lights In The Night [0:04:33.47]
07 Captains Beware [0:04:37.48]
08 Atlantis Calling [0:06:05.50]

Code
Exact Audio Copy V0.99 prebeta 3 from 28. July 2007

EAC extraction logfile from 25. May 2008, 20:23

Flash and the Pan / Lights in the Night

Used drive  : Optiarc DVD RW AD-7170A   Adapter: 1  ID: 0

Read mode               : Secure
Utilize accurate stream : Yes
Defeat audio cache      : Yes
Make use of C2 pointers : No

Read offset correction                      : 48
Overread into Lead-In and Lead-Out          : No
Fill up missing offset samples with silence : Yes
Delete leading and trailing silent blocks   : No
Null samples used in CRC calculations       : Yes
Used interface                    : Installed external ASPI interface

Used output format : Internal WAV Routines
Sample format      : 44.100 Hz; 16 Bit; Stereo

TOC of the extracted CD

       Track |   Start  |  Length  | Start sector | End sector   
      ---------------------------------------------------------
          1  |  0:00.00 |  5:53.62 |         0    |    26536     
          2  |  5:53.62 |  5:53.50 |     26537    |    53061     
          3  | 11:47.37 |  3:46.02 |     53062    |    70013     
          4  | 15:33.39 |  8:46.49 |     70014    |   109512     
          5  | 24:20.13 |  5:28.17 |    109513    |   134129     
          6  | 29:48.30 |  4:33.47 |    134130    |   154651     
          7  | 34:22.02 |  4:37.48 |    154652    |   175474     
          8  | 38:59.50 |  6:05.50 |    175475    |   202899     

Range status and errors

Selected range

       Filename C:\Flash and the Pan - Lights in the Night..by.rat.eac.ape.covers.Israel-club.my1.ru\Flash and the Pan - Lights in the Night..by.rat.eac.ape.covers.Israel-club.my1.ru.wav

       Peak level 100.0 %
       Range quality 99.9 %
       Copy CRC E26DADD1
       Copy OK

No errors occurred

End of status report

My WebPage

Category: Classic rock | Views: 456 | Added by: Rat | Rating: 5.0/3
Total comments: 1
0   Spam
1 Toerna   (23.10.2010 12:32)
Thanks

Only registered users can add comments.
[ Registration | Login ]

«  April 2010  »
SuMoTuWeThFrSa
    123
45678910
11121314151617
18192021222324
252627282930


  • Israel-club.my1.ru


  • Copyright MyCorp © 2017