Tuesday, 27.06.2017, 16:04
Welcome Guest | RSS
Main
Registration
Login




Vinyl [7]
Alternative [103]
Jazz [26]
Classic rock [179]
Classical [9]
Hard & Heavy [60]
Mainstream [53]
Hip-Hop [3]
Meditative [11]
New Beats [8]
Progressive [38]
Roots [25]
OST, Campilation [28]
DTS Releases [4]
Dvd Rip [7]
DVD [7]
Lossless HTTP [54]

Rate my site
Total of answers: 17


Total online: 1
Guests: 1
Users: 0

Login form

Main » 2010 » March » 21 » Flash And The Pan - Early Morning Wake Up Call (1984)
22:34
Flash And The Pan - Early Morning Wake Up Call (1984)

Artist: Flash And The Pan
Album: Early Morning Wake Up Call
Released: 1984
Source: Epic
Genre: power rock/new wave
Format: eac.ape

Quote
The best-known alter ego of the Harry Vanda/George Young songwriting team (the creative force behind the Easybeats), Flash and the Pan began simply as a between-production project in 1976. By 1979, the project had turned out a novelty hit with the single "Hey St. Peter." A second single, "Down Among the Dead," also became a hit throughout Australia and Europe, inspiring the release of the album Flash and the Pan. American radio began playing import copies which led to a deal with Epic Records. The album would soon reach the Top 100 in the U.S. despite the lack of a supporting tour. They released two more albums with some minor success in the U.K., but failed to make much impact due to the part-time nature of the project.

01. Early Morning Wake Up Call [0:04:06.00]
02. Communication Breakdown [0:03:28.00]
03. Barking At The Moon [0:03:59.42]
04. Downtown Too Long [0:04:20.13]
05. Opera Singers [0:04:51.07]
06. Midnight Man [0:04:57.00]
07. On The Road [0:05:06.05]
08. Look At That Woman Go [0:04:54.63]
09. Fat Night [0:03:57.32]
10. Believe In Yourself [0:04:19.10]

Code
Exact Audio Copy V0.99 prebeta 3 from 28. July 2007

EAC extraction logfile from 28. July 2008, 21:51

Flash And The Pan / Early Morning Wake Up Call

Used drive  : Optiarc DVD RW AD-7170A   Adapter: 1  ID: 0

Read mode               : Secure
Utilize accurate stream : Yes
Defeat audio cache      : Yes
Make use of C2 pointers : No

Read offset correction                      : 48
Overread into Lead-In and Lead-Out          : No
Fill up missing offset samples with silence : Yes
Delete leading and trailing silent blocks   : No
Null samples used in CRC calculations       : Yes
Used interface                    : Installed external ASPI interface

Used output format : Internal WAV Routines
Sample format      : 44.100 Hz; 16 Bit; Stereo

TOC of the extracted CD

       Track |   Start  |  Length  | Start sector | End sector   
      ---------------------------------------------------------
          1  |  0:00.00 |  4:06.00 |         0    |    18449     
          2  |  4:06.00 |  3:28.00 |     18450    |    34049     
          3  |  7:34.00 |  3:59.42 |     34050    |    52016     
          4  | 11:33.42 |  4:20.13 |     52017    |    71529     
          5  | 15:53.55 |  4:51.07 |     71530    |    93361     
          6  | 20:44.62 |  4:57.00 |     93362    |   115636     
          7  | 25:41.62 |  5:06.05 |    115637    |   138591     
          8  | 30:47.67 |  4:54.63 |    138592    |   160704     
          9  | 35:42.55 |  3:57.32 |    160705    |   178511     
         10  | 39:40.12 |  4:19.10 |    178512    |   197946     

Range status and errors

Selected range

       Filename C:\Flash And The Pan - Early.Morning.Wake.Up.Call.by.rat.eac.ape.covers.Israel-club.my1.ru\Flash And The Pan - Early.Morning.Wake.Up.Call.by.rat.eac.ape.covers.Israel-club.my1.ru.wav

       Peak level 99.5 %
       Range quality 100.0 %
       Copy CRC 328B5D8F
       Copy OK

No errors occurred

     
AccurateRip summary
     
Track  1  cannot be verified as accurate (confidence 7)  [9748062C], AccurateRip returned [A8BCFC8C]
Track  2  cannot be verified as accurate (confidence 7)  [71504BB4], AccurateRip returned [C8999DCF]
Track  3  cannot be verified as accurate (confidence 7)  [47F26652], AccurateRip returned [E01928B3]
Track  4  cannot be verified as accurate (confidence 7)  [6A3813E5], AccurateRip returned [07E1B3F6]
Track  5  cannot be verified as accurate (confidence 7)  [F8D74F23], AccurateRip returned [5DCD1AD8]
Track  6  cannot be verified as accurate (confidence 7)  [B238649D], AccurateRip returned [A737BD5C]
Track  7  cannot be verified as accurate (confidence 6)  [098E023C], AccurateRip returned [1B71EE1C]
Track  8  cannot be verified as accurate (confidence 6)  [CA1B3E08], AccurateRip returned [C88B47D3]
Track  9  cannot be verified as accurate (confidence 7)  [D15F33D0], AccurateRip returned [E4547FD0]
Track 10  cannot be verified as accurate (confidence 7)  [3763475D], AccurateRip returned [8FF5C855]
     
No tracks could be verified as accurate
You may have a different pressing from the one(s) in the database

End of status report

My WebPage

Category: Classic rock | Views: 304 | Added by: Rat | Rating: 0.0/0
Total comments: 0
Only registered users can add comments.
[ Registration | Login ]

«  March 2010  »
SuMoTuWeThFrSa
 123456
78910111213
14151617181920
21222324252627
28293031


  • Israel-club.my1.ru


  • Copyright MyCorp © 2017