Friday, 23.06.2017, 22:50
Welcome Guest | RSS
Main
Registration
Login




Vinyl [7]
Alternative [103]
Jazz [26]
Classic rock [179]
Classical [9]
Hard & Heavy [60]
Mainstream [53]
Hip-Hop [3]
Meditative [11]
New Beats [8]
Progressive [38]
Roots [25]
OST, Campilation [28]
DTS Releases [4]
Dvd Rip [7]
DVD [7]
Lossless HTTP [54]

Rate my site
Total of answers: 17


Total online: 1
Guests: 1
Users: 0

Login form

Main » 2010 » February » 12 » Filter - 1999 - Title Of Record
22:49
Filter - 1999 - Title Of Record

FILTER - Title Of Record

1. "Sand" (Richard Patrick) – 0:36
2. "Welcome to the Fold" (Patrick) – 7:40
3. "Captain Bligh" (Patrick) – 5:12
4. "It's Gonna Kill Me" (Patrick/Geno Lenardo) – 5:04
5. "The Best Things" (Patrick) – 4:26
6. "Take a Picture" (Patrick) – 6:03
7. "Skinny" (Patrick/Lenardo) – 5:43
8. "I Will Lead You" (Patrick/Lenardo) – 3:23
9. "Cancer" (Patrick/Frank Cavanagh) – 6:39
10. "I'm Not the Only One" (Patrick) – 5:49
11. "Miss Blue" (Patrick) – 19:48
* Contains an untitled hidden track.

Quote

"Hey Man, Nice Shot" may have been a fluke hit, but Filter's Richard Patrick has spent four years working on the follow-up album, mastering enough sonic variety to ensure that Filter stick around the moshpit. Programmer Brian Liesegang is gone, but Patrick continues on, picking up the slack and yielding nothing. Crowd reaction is impossible to anticipate, but at 70 minutes, Title of Record is an exhaustive collection of hyperkinetic guitars, subliminal melodies and thunderous dynamics--which is to say, it sports plenty of hard rock aggression, but is firmly rooted in the pop experience that keeps the songs in your head. "It's Gonna Kill Me" has a stalker's vibe in its techno-metal roots, while "Take a Picture" and "Captain Bligh" are radio-friendly unit shifters that suggest that underneath the technology rests a beating, and often bruised, human heart. --Rob O'Connor

Code
Exact Audio Copy V0.99 prebeta 4 from 23. January 2008

EAC extraction logfile from 17. February 2009, 14:22

Filter / Title Of Record

Used drive  : HL-DT-STDVDRAM GSA-H10N   Adapter: 2  ID: 0

Read mode               : Secure
Utilize accurate stream : Yes
Defeat audio cache      : Yes
Make use of C2 pointers : No

Read offset correction                      : 667
Overread into Lead-In and Lead-Out          : No
Fill up missing offset samples with silence : Yes
Delete leading and trailing silent blocks   : No
Null samples used in CRC calculations       : Yes
Used interface                    : Native Win32 interface for Win NT & 2000
Gap handling                    : Appended to previous track

Used output format              : User Defined Encoder
Selected bitrate                : 1024 kBit/s
Quality                         : High
Add ID3 tag                     : Yes
Command line compressor         : C:\Program Files\FLAC\flac.exe
Additional command line options : -8 -V -T "ARTIST=%a" -T "TITLE=%t" -T "ALBUM=%g" -T "DATE=%y" -T "TRACKNUMBER=%n" -T "GENRE=%m" -T "COMMENT=EAC FLAC -8" %s

TOC of the extracted CD

      Track |   Start  |  Length  | Start sector | End sector  
     ---------------------------------------------------------
         1  |  0:00.32 |  0:36.58 |        32    |     2789    
         2  |  0:37.15 |  7:40.30 |      2790    |    37319    
         3  |  8:17.45 |  5:12.35 |     37320    |    60754    
         4  | 13:30.05 |  5:04.47 |     60755    |    83601    
         5  | 18:34.52 |  4:26.18 |     83602    |   103569    
         6  | 23:00.70 |  6:03.60 |    103570    |   130854    
         7  | 29:04.55 |  5:43.47 |    130855    |   156626    
         8  | 34:48.27 |  3:23.35 |    156627    |   171886    
         9  | 38:11.62 |  6:39.18 |    171887    |   201829    
        10  | 44:51.05 |  5:49.50 |    201830    |   228054    
        11  | 50:40.55 | 19:48.70 |    228055    |   317224    

Track  1

      Filename L:\Muza temp\Zagraniczne\Filter\1999 - Title Of Record\01 - Sand.wav

      Pre-gap length  0:00:02.32

      Peak level 43.1 %
      Track quality 100.0 %
      Test CRC E4EAC807
      Copy CRC E4EAC807
      Accurately ripped (confidence 41)  [656BE58D]
      Copy OK

Track  2

      Filename L:\Muza temp\Zagraniczne\Filter\1999 - Title Of Record\02 - Welcome To The Fold.wav

      Peak level 99.9 %
      Track quality 100.0 %
      Test CRC 38FBE1E6
      Copy CRC 38FBE1E6
      Accurately ripped (confidence 40)  [09E0AD08]
      Copy OK

Track  3

      Filename L:\Muza temp\Zagraniczne\Filter\1999 - Title Of Record\03 - Captain Bligh.wav

      Peak level 99.9 %
      Track quality 99.9 %
      Test CRC A24C7A45
      Copy CRC A24C7A45
      Accurately ripped (confidence 40)  [885269C5]
      Copy OK

Track  4

      Filename L:\Muza temp\Zagraniczne\Filter\1999 - Title Of Record\04 - It's Gonna Kill Me.wav

      Peak level 99.7 %
      Track quality 100.0 %
      Test CRC 7E8CFA6C
      Copy CRC 7E8CFA6C
      Accurately ripped (confidence 40)  [0B6A28E3]
      Copy OK

Track  5

      Filename L:\Muza temp\Zagraniczne\Filter\1999 - Title Of Record\05 - The Best Things.wav

      Peak level 99.7 %
      Track quality 100.0 %
      Test CRC 303155AF
      Copy CRC 303155AF
      Accurately ripped (confidence 40)  [A384052B]
      Copy OK

Track  6

      Filename L:\Muza temp\Zagraniczne\Filter\1999 - Title Of Record\06 - Take A Picture.wav

      Pre-gap length  0:00:02.10

      Peak level 99.7 %
      Track quality 100.0 %
      Test CRC A05B9F23
      Copy CRC A05B9F23
      Accurately ripped (confidence 39)  [8D718920]
      Copy OK

Track  7

      Filename L:\Muza temp\Zagraniczne\Filter\1999 - Title Of Record\07 - Skinny.wav

      Pre-gap length  0:00:01.23

      Peak level 99.9 %
      Track quality 100.0 %
      Test CRC AB7C1340
      Copy CRC AB7C1340
      Accurately ripped (confidence 37)  [E8BA2F74]
      Copy OK

Track  8

      Filename L:\Muza temp\Zagraniczne\Filter\1999 - Title Of Record\08 - I Will Lead You.wav

      Pre-gap length  0:00:00.02

      Peak level 99.7 %
      Track quality 100.0 %
      Test CRC CAB82F5F
      Copy CRC CAB82F5F
      Accurately ripped (confidence 38)  [49EF9CFC]
      Copy OK

Track  9

      Filename L:\Muza temp\Zagraniczne\Filter\1999 - Title Of Record\09 - Cancer.wav

      Pre-gap length  0:00:00.57

      Peak level 99.9 %
      Track quality 100.0 %
      Test CRC EF93024E
      Copy CRC EF93024E
      Accurately ripped (confidence 38)  [F6F07ABD]
      Copy OK

Track 10

      Filename L:\Muza temp\Zagraniczne\Filter\1999 - Title Of Record\10 - I'm Not The Only One.wav

      Peak level 99.7 %
      Track quality 99.9 %
      Test CRC 344E6DF0
      Copy CRC 344E6DF0
      Accurately ripped (confidence 39)  [6E904760]
      Copy OK

Track 11

      Filename L:\Muza temp\Zagraniczne\Filter\1999 - Title Of Record\11 - Miss Blue.wav

      Peak level 99.1 %
      Track quality 100.0 %
      Test CRC 20C38954
      Copy CRC 20C38954
      Accurately ripped (confidence 37)  [0116137A]
      Copy OK

All tracks accurately ripped

No errors occurred

End of status report

Year:1999
Genre:Hard Rock, Alternative
Format: Eac Flac Cue Log

download

Category: Hard & Heavy | Views: 277 | Added by: Rat | Rating: 0.0/0
Total comments: 0
Only registered users can add comments.
[ Registration | Login ]

«  February 2010  »
SuMoTuWeThFrSa
 123456
78910111213
14151617181920
21222324252627
28


  • Israel-club.my1.ru


  • Copyright MyCorp © 2017