Tuesday, 24.10.2017, 02:07
Welcome Guest | RSS
Main
Registration
Login




Vinyl [7]
Alternative [103]
Jazz [26]
Classic rock [179]
Classical [9]
Hard & Heavy [60]
Mainstream [53]
Hip-Hop [3]
Meditative [11]
New Beats [8]
Progressive [38]
Roots [25]
OST, Campilation [28]
DTS Releases [4]
Dvd Rip [7]
DVD [7]
Lossless HTTP [54]

Rate my site
Total of answers: 17


Total online: 1
Guests: 1
Users: 0

Login form

Main » 2011 » July » 19 » ELO - Balance Of Power (2001) remastered
19:44
ELO - Balance Of Power (2001) remastered

Artist: Electric Light Orchestra 
Title Of Album: Balance of Power (Remastered) 
Year Of Release: 1986/2007 
Label: Epic/Legacy 
Genre: Progressive Rock 
Total Time: 56:17 
Total Size: 425 MB
 

Quote
Electric Light Orchestra (ELO) were a British rock group from Birmingham, who released eleven studio albums between 1971 and 1986 and another album in 2001. ELO were formed to accommodate Roy Wood and Jeff Lynne's desire to create modern rock and pop songs with classical overtones. After Wood's departure following the band's debut record, Lynne wrote and arranged all of the group's original compositions and produced every album.


01 Heaven Only Knows 
02 So Serious 
03 Getting To The Point 
04 Secret Lives 
05 Is It Alright 
06 Sorrow About To Fall 
07 Without Someone 
08 Calling America 
09 Endless Lies 
10 Send It 
Bonus Tracks: 
11 Opening 
12 Heaven Only Knows (Alternate Version) 
13 In For The Kill 
14 Secret Lives (Alternate Take) 
15 Sorrow About To Fall (Alternate Mix) 
16 Caught In A Trap (U.K. B-Side) 
17 Destination Unknown (U.K. B-Side) 

Code
Exact Audio Copy V1.0 beta 1 from 15. November 2010 

EAC extraction logfile from 11. June 2011, 23:54 

ELO / Balance of Power 

Used drive : PIONEER DVD-RW DVR-215L Adapter: 4 ID: 0 

Read mode : Secure 
Utilize accurate stream : Yes 
Defeat audio cache : Yes 
Make use of C2 pointers : No 

Read offset correction : 48 
Overread into Lead-In and Lead-Out : No 
Fill up missing offset samples with silence : Yes 
Delete leading and trailing silent blocks : No 
Null samples used in CRC calculations : Yes 
Used interface : Native Win32 interface for Win NT & 2000 

Used output format : User Defined Encoder 
Selected bitrate : 768 kBit/s 
Quality : High 
Add ID3 tag : No 
Command line compressor : C:\Program Files (x86)\Exact Audio Copy\FLAC\FLAC.EXE 
Additional command line options : -8 -V -T "ARTIST=%a" -T "TITLE=%t" -T "ALBUM=%g" -T "DATE=%y" -T "TRACKNUMBER=%n" -T "GENRE=%m" -T "COMMENT=%e" %j--picture="%i"%j %s -o %d 

TOC of the extracted CD 

Track | Start | Length | Start sector | End sector 
--------------------------------------------------------- 
1 | 0:00.00 | 2:56.41 | 0 | 13240 
2 | 2:56.41 | 2:43.63 | 13241 | 25528 
3 | 5:40.29 | 4:30.41 | 25529 | 45819 
4 | 10:10.70 | 3:31.73 | 45820 | 61717 
5 | 13:42.68 | 3:27.14 | 61718 | 77256 
6 | 17:10.07 | 4:04.62 | 77257 | 95618 
7 | 21:14.69 | 3:51.04 | 95619 | 112947 
8 | 25:05.73 | 3:30.40 | 112948 | 128737 
9 | 28:36.38 | 3:00.01 | 128738 | 142238 
10 | 31:36.39 | 3:10.20 | 142239 | 156508 
11 | 34:46.59 | 0:24.09 | 156509 | 158317 
12 | 35:10.68 | 2:34.61 | 158318 | 169928 
13 | 37:45.54 | 3:16.12 | 169929 | 184640 
14 | 41:01.66 | 3:26.67 | 184641 | 200157 
15 | 44:28.58 | 3:50.45 | 200158 | 217452 
16 | 48:19.28 | 3:47.31 | 217453 | 234508 
17 | 52:06.59 | 4:10.24 | 234509 | 253282 

Range status and errors 

Selected range 

Filename D:\Музыка\EAC\1986 - Balance of Power\ELO - Balance of Power.wav 

Peak level 99.7 % 
Extraction speed 0.5 X 
Range quality 99.9 % 
Test CRC 93D9DE8F 
Copy CRC 93D9DE8F 
Copy OK 

No errors occurred 

AccurateRip summary 

Track 1 accurately ripped (confidence 2) [065EDDE8] 
Track 2 accurately ripped (confidence 2) [73454751] 
Track 3 accurately ripped (confidence 2) [DEADC263] 
Track 4 accurately ripped (confidence 2) [5C29E055] 
Track 5 accurately ripped (confidence 2) [4383DB2E] 
Track 6 accurately ripped (confidence 2) [D0D9E7DC] 
Track 7 accurately ripped (confidence 2) [84015FD7] 
Track 8 accurately ripped (confidence 2) [180F0C77] 
Track 9 accurately ripped (confidence 2) [20F9B92E] 
Track 10 accurately ripped (confidence 2) [FD44BC91] 
Track 11 accurately ripped (confidence 2) [A88A383F] 
Track 12 accurately ripped (confidence 2) [71A4E3E1] 
Track 13 accurately ripped (confidence 2) [5F1D7B15] 
Track 14 accurately ripped (confidence 2) [C87CD0D8] 
Track 15 accurately ripped (confidence 2) [1BAD881C] 
Track 16 accurately ripped (confidence 2) [1643A2BF] 
Track 17 accurately ripped (confidence 2) [D1725FC5] 

All tracks accurately ripped 

End of status repotr


download
Category: Progressive | Views: 270 | Added by: Rat | Rating: 0.0/0
Total comments: 0
Only registered users can add comments.
[ Registration | Login ]

«  July 2011  »
SuMoTuWeThFrSa
     12
3456789
10111213141516
17181920212223
24252627282930
31


  • Israel-club.my1.ru


  • Copyright MyCorp © 2017