Saturday, 21.10.2017, 18:00
Welcome Guest | RSS
Main
Registration
Login




Vinyl [7]
Alternative [103]
Jazz [26]
Classic rock [179]
Classical [9]
Hard & Heavy [60]
Mainstream [53]
Hip-Hop [3]
Meditative [11]
New Beats [8]
Progressive [38]
Roots [25]
OST, Campilation [28]
DTS Releases [4]
Dvd Rip [7]
DVD [7]
Lossless HTTP [54]

Rate my site
Total of answers: 17


Total online: 1
Guests: 1
Users: 0

Login form

Main » 2010 » June » 25 » Elan - School Party (1985 )
22:05
Elan - School Party (1985 )

Artist: Elan
Album: School Party
Released: 1985
Source: Opus
Genre: pop Rock
Format: eac/ape

01 - Vanilla Shanilla. (V.Patejdl jr. / B.Filan - V.Cort)
02 - Good And Bad. (J.Balaz / B.Filan - V.Cort)
03 - Scholl Party. (J.Raz / B.Filan - B.Nosatova)
04 - Pearl In The Shell. (J.Balaz / B.Filan - V.Cort)
05 - You Get It Hot. (J.Raz / B.Filan - B.Nosatova)
06 - Fool In Vain. (J.Balaz / B.Filan - B.Nosatova)

01 - Don't Break Me Down. (J.Raz / B.Filan - V.Cort)
02 - High Energy. ((V.Patejdl jr. / B.Filan - V.Cort)
03 - I Ain't Alone. (J.Raz / B.Filan - B.Nosatova)
04 - Ripper Of The Day. (J.Balaz / B.Filan - V.Cort)
05 - Lonelines Of Secret Heart. (V.Patejdl jr. / B.Filan - B.Nosatova)

Solo vocal: V.Patejdl jr. (A1, B5), J.Raz (A2-6, B1-3), J.Balaz (B4)

ELAN:
V.Patejdl jr. - acoustic piano Jamaha CP-30, PF-15, Roland JP-6, SCI Pro One, vocal
J.Raz - bass guitar, vocal
J.Balaz - electric and acoustic guitar, vocal
J.Farkas - electric guitar, vocal
Z.Balaz - drums and percussion
J.Dosek - special effects
L.Stankovsky (as a guest) - drums

Exported by Slovart, Bratislava
Made in Czechoslovakia

Code
Exact Audio Copy V0.99 prebeta 4 from 23. January 2008

EAC extraction logfile from 23. June 2010, 10:09

Elan / School Party

Used drive  : Optiarc DVD RW AD-7170A   Adapter: 3  ID: 0

Read mode               : Secure
Utilize accurate stream : Yes
Defeat audio cache      : Yes
Make use of C2 pointers : No

Read offset correction                      : 48
Overread into Lead-In and Lead-Out          : No
Fill up missing offset samples with silence : Yes
Delete leading and trailing silent blocks   : No
Null samples used in CRC calculations       : Yes
Used interface                    : Installed external ASPI interface

Used output format : Internal WAV Routines
Sample format      : 44.100 Hz; 16 Bit; Stereo

TOC of the extracted CD

      Track |   Start  |  Length  | Start sector | End sector  
     ---------------------------------------------------------
         1  |  0:00.00 |  3:10.07 |         0    |    14256    
         2  |  3:10.07 |  3:16.22 |     14257    |    28978    
         3  |  6:26.29 |  2:59.61 |     28979    |    42464    
         4  |  9:26.15 |  3:50.05 |     42465    |    59719    
         5  | 13:16.20 |  3:03.26 |     59720    |    73470    
         6  | 16:19.46 |  3:40.03 |     73471    |    89973    
         7  | 19:59.49 |  4:34.38 |     89974    |   110561    
         8  | 24:34.12 |  4:25.65 |    110562    |   130501    
         9  | 29:00.02 |  4:29.10 |    130502    |   150686    
        10  | 33:29.12 |  3:22.69 |    150687    |   165905    
        11  | 36:52.06 |  4:50.28 |    165906    |   187683    

Range status and errors

Selected range

      Filename C:\Documents and Settings\Мои документы\Elan - School Party.by.rat.eac.ape.covers.lossless-muz.ucoz.com\Elan - School Party.by.rat.eac.ape.covers.lossless-muz.ucoz.wav

      Peak level 100.0 %
      Range quality 99.9 %
      Copy CRC DFAD46B9
      Copy OK

No errors occurred

End of status report

My WebPage

Category: Roots | Views: 300 | Added by: Rat | Rating: 0.0/0
Total comments: 0
Only registered users can add comments.
[ Registration | Login ]

«  June 2010  »
SuMoTuWeThFrSa
  12345
6789101112
13141516171819
20212223242526
27282930


  • Israel-club.my1.ru


  • Copyright MyCorp © 2017