Sunday, 20.08.2017, 19:17
Welcome Guest | RSS
Main
Registration
Login




Vinyl [7]
Alternative [103]
Jazz [26]
Classic rock [179]
Classical [9]
Hard & Heavy [60]
Mainstream [53]
Hip-Hop [3]
Meditative [11]
New Beats [8]
Progressive [38]
Roots [25]
OST, Campilation [28]
DTS Releases [4]
Dvd Rip [7]
DVD [7]
Lossless HTTP [54]

Rate my site
Total of answers: 17


Total online: 1
Guests: 1
Users: 0

Login form

Main » 2010 » February » 12 » Douglas September - Ten Bulls (1998)
21:59
Douglas September - Ten Bulls (1998)

Artist
Douglas September
Album
Ten Bulls
Qualty
Eac-flac
Release Date
Apr 7, 1998
Label
Samson Music
Genre
Pop/Rock

Quote
For people who loves Dire Straits, Mark Knopfler or simmmmilar! Right choice!

Для тех кто любит Dire Straits, Mark Knopfler или подобных исполнителей этот релиз!



01. Profit Avenue [0:04:51.67]
02. Another Man [0:03:47.25]
03. English Eyes [0:03:37.40]
04. Lady and I [0:04:48.63]
05. That Country Is So Far Away [0:03:25.15]
06. Time It Don't Me Nothin' [0:04:15.45]
07. The Change [0:04:48.62]
08. Tonight [0:05:21.13]
09. 3:54 [0:03:50.25]
10. I Ain't Got No Home [0:03:41.65]
11. I Shall Not Walk Alone [0:05:47.45]
12. Crows [0:03:44.27]

Code
Exact Audio Copy V0.99 prebeta 4 from 23. January 2008

EAC extraction logfile from 10. December 2009, 18:14

Douglas September / Ten Bulls

Used drive  : Optiarc DVD RW AD-7170A   Adapter: 3  ID: 0

Read mode               : Secure
Utilize accurate stream : Yes
Defeat audio cache      : Yes
Make use of C2 pointers : No

Read offset correction                      : 48
Overread into Lead-In and Lead-Out          : No
Fill up missing offset samples with silence : Yes
Delete leading and trailing silent blocks   : No
Null samples used in CRC calculations       : Yes
Used interface                    : Installed external ASPI interface

Used output format : Internal WAV Routines
Sample format      : 44.100 Hz; 16 Bit; Stereo

TOC of the extracted CD

       Track |   Start  |  Length  | Start sector | End sector   
      ---------------------------------------------------------
          1  |  0:00.00 |  4:51.67 |         0    |    21891     
          2  |  4:51.67 |  3:47.25 |     21892    |    38941     
          3  |  8:39.17 |  3:37.40 |     38942    |    55256     
          4  | 12:16.57 |  4:48.63 |     55257    |    76919     
          5  | 17:05.45 |  3:25.15 |     76920    |    92309     
          6  | 20:30.60 |  4:15.45 |     92310    |   111479     
          7  | 24:46.30 |  4:48.62 |    111480    |   133141     
          8  | 29:35.17 |  5:21.13 |    133142    |   157229     
          9  | 34:56.30 |  3:50.25 |    157230    |   174504     
         10  | 38:46.55 |  3:41.65 |    174505    |   191144     
         11  | 42:28.45 |  5:47.45 |    191145    |   217214     
         12  | 48:16.15 |  3:44.27 |    217215    |   234041     

Range status and errors

Selected range

       Filename C:\Documents and Settings\Мои документы\Douglas September - Ten Bulls.flac.covers.by.rat.Israel-club.my1.ru\Douglas September - Ten Bulls.flac.covers.by.rat.Israel-club.my1.ru.wav

       Peak level 100.0 %
       Range quality 100.0 %
       Copy CRC F526EC28
       Copy OK

No errors occurred

End of status report

Download

Category: Classic rock | Views: 243 | Added by: Rat | Rating: 0.0/0
Total comments: 0
Only registered users can add comments.
[ Registration | Login ]

«  February 2010  »
SuMoTuWeThFrSa
 123456
78910111213
14151617181920
21222324252627
28


  • Israel-club.my1.ru


  • Copyright MyCorp © 2017