Tuesday, 24.10.2017, 03:54
Welcome Guest | RSS
Main
Registration
Login




Vinyl [7]
Alternative [103]
Jazz [26]
Classic rock [179]
Classical [9]
Hard & Heavy [60]
Mainstream [53]
Hip-Hop [3]
Meditative [11]
New Beats [8]
Progressive [38]
Roots [25]
OST, Campilation [28]
DTS Releases [4]
Dvd Rip [7]
DVD [7]
Lossless HTTP [54]

Rate my site
Total of answers: 17


Total online: 1
Guests: 1
Users: 0

Login form

Main » 2010 » June » 25 » Dinosaur Jr - Beyond (2007)
13:27
Dinosaur Jr - Beyond (2007)

Artist: Dinosaur Jr
Album: Beyond
Released: 2007
Label: Play It Again Sam
Cat.N°: PIL070CD
Genre: American Underground - Indie Rock - Noise Pop
File Format: Eac 0.99pb3 - Flac 1.2.0 - Cue Log Scans Embedded

A straight shot west out of Boston on I-90 will carry you, in two hours or less, to Western Massachusetts, where the country still looks like it did twenty or even 40 years ago: college towns, I-91 tracing the same lazy ladder from Springfield up through Holyoke and Northampton, Amherst and Deerfield. Out there it's taken for granted that the houses will be drafty, the winters uniformly long, and that, on any given trip to the local supermarket, one might spot Thurston or Lou or Kim or J, on-and-off locals for more than twenty years. This is the quiet corner of the American indie elite, alive and well, where the long sleep between 1983 and 2007 feels more like a light daydream, and where the gap between a record then and a record now is no bigger than the label change from Homestead and SST to Geffen or Fat Possum. Dinosaur Jr., Amherst's native sons, have no business releasing a record as eerily faithful to their own past as this one, but here it is, in all its low-key glory.
The nostalgia this thing exudes is hard to pin down. Jess Harvell's generational invocation in 2005 at the reissue of the three records the original Dinosaur lineup made in 1985, 1987, and 1988 is as good as any representation of the utter and complete solidarity and identification a certain enormous group of fans of Alternative Rock (read: everybody of music-listening age in the nineties) had-- has-- with this band. Just throw on anything from Dinosaur to Without a Sound and watch your elders go slack-jawed. Imagine our surprise when we finally became old enough and realized that the battered weariness that was always there in their music and in J Mascis' ever-thinning voice was perfectly suited to actually being a little bit old.
Beyond, the band's first record as the selfsame trio since 1988's Bug, benefits enormously-- more so even than fellow MA-veterans Mission of Burma or latter-day Sonic Youth-- from the years, experiences, successes, and disappointments elapsed between then and now. It's been an eternity since the sludgy Jurassic ooze of their debut, Dinosaur, the light-bursting-through-trees melody of You're Living All Over Me, the clean lines of Bug and Mascis' subsequent solo expeditions, under his own name and that of his old band. But none of the three ever stopped making music, whether Lou (Sebadoh, Sentridoh, Folk Implosion, and solo), J (Witch, the Fog) or otherwise (Murph?). Their music aged naturally along with them.....(8.4/10) Pitchforkmedia.com

Almost Ready
Crumble
Pick Me Up
Back to Your Heart
This is All I Came to Do
Been There All the Time
It's Me
We're not Alone
I Got Lost
Lightning Bulb
What if I Knew

Code
Exact Audio Copy V0.99 prebeta 3 from 28. July 2007

EAC extraction logfile from January 2008

Dinosaur Jr. / Beyond

Used drive  : PLEXTOR DVDR   PX-760A   Adapter: 0  ID: 1

Read mode               : Secure
Utilize accurate stream : Yes
Defeat audio cache      : Yes
Make use of C2 pointers : No

Read offset correction                      : 30
Overread into Lead-In and Lead-Out          : No
Fill up missing offset samples with silence : Yes
Delete leading and trailing silent blocks   : No
Null samples used in CRC calculations       : Yes
Used interface                    : Installed external ASPI interface

Used output format              : User Defined Encoder
Selected bitrate                : 768 kBit/s
Quality                         : High
Add ID3 tag                     : No
Command line compressor         : C:\Programmi\Exact Audio Copy\FLAC\FLAC.EXE
Additional command line options : -8 -V -T "ARTIST=%a" -T "ALBUM=%g" -T "DATE=%y" -T "GENRE=%m" %s -o %d

TOC of the extracted CD

       Track |   Start  |  Length  | Start sector | End sector   
      ---------------------------------------------------------
          1  |  0:00.00 |  3:08.02 |         0    |    14101     
          2  |  3:08.02 |  4:04.04 |     14102    |    32405     
          3  |  7:12.06 |  6:32.58 |     32406    |    61863     
          4  | 13:44.64 |  4:30.71 |     61864    |    82184     
          5  | 18:15.60 |  5:21.63 |     82185    |   106322     
          6  | 23:37.48 |  3:40.50 |    106323    |   122872     
          7  | 27:18.23 |  5:14.59 |    122873    |   146481     
          8  | 32:33.07 |  4:35.04 |    146482    |   167110     
          9  | 37:08.11 |  4:37.32 |    167111    |   187917     
         10  | 41:45.43 |  3:45.44 |    187918    |   204836     
         11  | 45:31.12 |  4:01.62 |    204837    |   222973     

Range status and errors

Selected range

       Filename J:\Dinosaur Jr. - Beyond.wav

       Peak level 97.7 %
       Range quality 99.9 %
       Test CRC BB75F8CE
       Copy CRC BB75F8CE
       Copy OK

No errors occurred

     
AccurateRip summary
     
Track  1  accurately ripped (confidence 16)  [034ECC9D]
Track  2  accurately ripped (confidence 16)  [D063D8EE]
Track  3  accurately ripped (confidence 16)  [AF5B6049]
Track  4  accurately ripped (confidence 16)  [B8A00D6F]
Track  5  accurately ripped (confidence 17)  [A8158716]
Track  6  accurately ripped (confidence 16)  [4E42788B]
Track  7  accurately ripped (confidence 16)  [512CDD13]
Track  8  accurately ripped (confidence 16)  [05CB425C]
Track  9  accurately ripped (confidence 16)  [DE2CA974]
Track 10  accurately ripped (confidence 16)  [852D3D9C]
Track 11  accurately ripped (confidence 16)  [89CD15C1]
     
All tracks accurately ripped

End of status report

LINK

Category: Alternative | Views: 554 | Added by: Rat | Rating: 0.0/0
Total comments: 0
Only registered users can add comments.
[ Registration | Login ]

«  June 2010  »
SuMoTuWeThFrSa
  12345
6789101112
13141516171819
20212223242526
27282930


  • Israel-club.my1.ru


  • Copyright MyCorp © 2017