Monday, 21.08.2017, 17:54
Welcome Guest | RSS
Main
Registration
Login




Vinyl [7]
Alternative [103]
Jazz [26]
Classic rock [179]
Classical [9]
Hard & Heavy [60]
Mainstream [53]
Hip-Hop [3]
Meditative [11]
New Beats [8]
Progressive [38]
Roots [25]
OST, Campilation [28]
DTS Releases [4]
Dvd Rip [7]
DVD [7]
Lossless HTTP [54]

Rate my site
Total of answers: 17


Total online: 1
Guests: 1
Users: 0

Login form

Main » 2011 » July » 12 » David Sylvian - Died In The Wool (2cd )(2011)
06:00
David Sylvian - Died In The Wool (2cd )(2011)
 

Format: 2 X CD 
Country: UK 
Style: Abstract, Avantgarde, Experimental 
Quality: Flac

Quote
David Sylvian's Manofon album, released last year, was a huge achievement in terms of both conception and execution: the erstwhile Japan frontman singing plangent melodies in his initimably rich timbre against beautiful autumnal soundscapes crafted with composer Dai 
Fujikura (a student of Pierre Boulez, no less) and such improv luminaries as John Tilbury, Keith Rowe and Christian Fennesz. For our money, this companion set manages to trump it - it's comprised of cuts that didn't make the album and Fujikura rearrangements of tracks that did, plus a couple of remixes by producers Erik Honore and Jan Bang. The new version of 'Random Acts of Senseless Violence' is set in more dub-aware space, Fujikuma adding plaintive strings but stripping everything else away, leaving Sylvian's voice exposed in all its eerie glory. If there's a more beautiful song than 'I Should Not Dare' released this year then we'll be amazed: it dresses one of Sylvian's most affecting and classically pop-romantic melodies in a discreet electronic ambience, enhanced by Fennesz's treated guitar and a live recording of Supersilent keyboardist Ståle Storløkken. Other tracks explore more troubled, dissonant territory, coming over like a distinctly English riposte to the avant-baroque compositions of late Scott Walker. Disc Two is given over to 'When we return you won't recognise us', a sumptuous stereo mix of an audio installation commissioned for the Biennial of Canaries 2008-2009 and inspired by genetic lineage and cultural heritage; it features star improvisers John Butcher, Arve Henriksen, Günter Müller, Toshimaru Nakamura and Eddie Prévost working with a string ensemble sextet directed by Fujikura. Died In The Wool really is divine and inexhaustibly interesting, essential not just for fans of Sylvian and his renowned collaborators but also Talk Talk, Robert Wyatt, Kate Bush and all those other conjurors of Electric Eden.


CD1 
01. Small Metal Gods [0:05:09.03] 
02. Died in the Wool [0:06:03.03] 
03. I Should Not Dare [0:03:24.03] 
04. Random Acts of Senseless Violence [0:06:24.58] 
05. A Certain Slant of Light [0:03:28.28] 
06. Anamoly at Taw Head [0:05:06.00] 
07. Snow White in Appalachia [0:05:59.36] 
08. Emily Dickinson [0:03:35.16] 
09. The Greatest Living Englishman (coda) [0:03:06.26] 
10. Anamoly at Taw Head (a haunting) [0:03:12.01] 
11. Manafon [0:04:05.01] 
12. The Last Days of December [0:06:16.00] 
CD2: 
1.When We Return You Won’t Recognise Us 

Code
Exact Audio Copy V1.0 beta 2 from 29. April 2011 

EAC extraction logfile from 11. July 2011, 18:58 

David Sylvian / Died in the Wool (Disc 1) 

Used drive  : HL-DT-STDVD-RAM GH22NP20   Adapter: 0  ID: 0 

Read mode               : Secure 
Utilize accurate stream : Yes 
Defeat audio cache      : Yes 
Make use of C2 pointers : No 

Read offset correction                      : 102 
Overread into Lead-In and Lead-Out          : No 
Fill up missing offset samples with silence : Yes 
Delete leading and trailing silent blocks   : No 
Null samples used in CRC calculations       : Yes 
Used interface                    : Installed external ASPI interface 

Used output format : Internal WAV Routines 
Sample format      : 44.100 Hz; 16 Bit; Stereo 

TOC of the extracted CD 

      Track |   Start  |  Length  | Start sector | End sector  
     --------------------------------------------------------- 
         1  |  0:00.00 |  5:09.03 |         0    |    23177    
         2  |  5:09.03 |  6:03.03 |     23178    |    50405    
         3  | 11:12.06 |  3:24.03 |     50406    |    65708    
         4  | 14:36.09 |  6:24.58 |     65709    |    94566    
         5  | 21:00.67 |  3:28.28 |     94567    |   110194    
         6  | 24:29.20 |  5:06.00 |    110195    |   133144    
         7  | 29:35.20 |  5:59.36 |    133145    |   160105    
         8  | 35:34.56 |  3:35.16 |    160106    |   176246    
         9  | 39:09.72 |  3:06.26 |    176247    |   190222    
        10  | 42:16.23 |  3:12.01 |    190223    |   204623    
        11  | 45:28.24 |  4:05.01 |    204624    |   222999    
        12  | 49:33.25 |  6:16.00 |    223000    |   251199    

Range status and errors 

Selected range 

      Filename K:\Documents and Settings\Мои документы\David Sylvian - Died in the Wool.2cd.flac.covers.by.rat.lossless-muz.ucoz.com\David Sylvian - Died in the Wool (Disc 1).wav 

      Peak level 99.9 % 
      Extraction speed 2.9 X 
      Range quality 100.0 % 
      Copy CRC 7A35DF3D 
      Copy OK 

No errors occurred 

   
AccurateRip summary 
   
Track  1  not present in database 
Track  2  not present in database 
Track  3  not present in database 
Track  4  not present in database 
Track  5  not present in database 
Track  6  not present in database 
Track  7  not present in database 
Track  8  not present in database 
Track  9  not present in database 
Track 10  not present in database 
Track 11  not present in database 
Track 12  not present in database 
   
None of the tracks are present in the AccurateRip database 

End of status report 

Exact Audio Copy V1.0 beta 2 from 29. April 2011 

EAC extraction logfile from 11. July 2011, 19:10 

David Sylvian / Died in the Wool (Disc 2) 

Used drive  : HL-DT-STDVD-RAM GH22NP20   Adapter: 0  ID: 0 

Read mode               : Secure 
Utilize accurate stream : Yes 
Defeat audio cache      : Yes 
Make use of C2 pointers : No 

Read offset correction                      : 102 
Overread into Lead-In and Lead-Out          : No 
Fill up missing offset samples with silence : Yes 
Delete leading and trailing silent blocks   : No 
Null samples used in CRC calculations       : Yes 
Used interface                    : Installed external ASPI interface 

Used output format : Internal WAV Routines 
Sample format      : 44.100 Hz; 16 Bit; Stereo 

TOC of the extracted CD 

      Track |   Start  |  Length  | Start sector | End sector  
     --------------------------------------------------------- 
         1  |  0:00.00 | 18:15.25 |         0    |    82149    

Range status and errors 

Selected range 

      Filename K:\Documents and Settings\Мои документы\David Sylvian - Died in the Wool.2cd.flac.covers.by.rat.lossless-muz.ucoz.com\David Sylvian - Died in the Wool (Disc 2).flac.covers.by.rat.lossless-muz.ucoz.wav 

      Peak level 98.8 % 
      Extraction speed 2.3 X 
      Range quality 100.0 % 
      Copy CRC C0C854B8 
      Copy OK 

No errors occurred 

   
AccurateRip summary 
   
Track  1  cannot be verified as accurate (confidence 4)  [ECD70A0D], AccurateRip returned [3D6A36D4]  (AR v2) 
   
No tracks could be verified as accurate 
You may have a different pressing from the one(s) in the database 

End of status report 


download
Category: Progressive | Views: 233 | Added by: Rat | Rating: 0.0/0
Total comments: 1
0   Spam
1 goresleeps   (12.07.2011 12:24)
ну и как это скачать? на раздаче - никого.
запарил этот осёл уже....

Only registered users can add comments.
[ Registration | Login ]

«  July 2011  »
SuMoTuWeThFrSa
     12
3456789
10111213141516
17181920212223
24252627282930
31


  • Israel-club.my1.ru


  • Copyright MyCorp © 2017