Sunday, 20.08.2017, 19:27
Welcome Guest | RSS
Main
Registration
Login




Vinyl [7]
Alternative [103]
Jazz [26]
Classic rock [179]
Classical [9]
Hard & Heavy [60]
Mainstream [53]
Hip-Hop [3]
Meditative [11]
New Beats [8]
Progressive [38]
Roots [25]
OST, Campilation [28]
DTS Releases [4]
Dvd Rip [7]
DVD [7]
Lossless HTTP [54]

Rate my site
Total of answers: 17


Total online: 1
Guests: 1
Users: 0

Login form

Main » 2010 » February » 12 » David Murray - Speaking In Tongues (1999)
22:25
David Murray - Speaking In Tongues (1999)

Artist: David Murray
Album: Speaking In Tongues
Released: 1999
Genre: Jazz
Format: eac-ape.covers

Quote
Initially an inheritor of an abstract/expressionist improvising style originated in the '60s by such saxophonists as Albert Ayler and Archie Shepp, David Murray eventually evolved into something of a mainstream tenorist, playing standards with conventional rhythm sections. However, Murray's readings of the old chestnuts are vastly different from interpretations by bebop saxophonists of his generation. Murray's sound is deep, dark, and furry with a wide vibrato -- reminiscent of such swing-era tenorists as Ben Webster and Coleman Hawkins. And his approach to chord changes is unique. Although it's apparent that he's well-versed in harmony, Murray seldom adheres faithfully to the structure of a tune. ...

1. How I Got Over
2. Nobody Knows The Trouble I've Seen
3. Jimane's Creation
4. Missionary
5. Don't Know What I Would Do
6. Amazing Grace
7. Blessed Assurance
8. Closer Walk With Thee, A

Code

Exact Audio Copy V0.99 prebeta 3 from 28. July 2007

EAC extraction logfile from 25. February 2008, 19:50

Dave Murray / Speaking In Tongues

Used drive  : TSSTcorpCD/DVDW SH-W162L   Adapter: 1  ID: 1

Read mode               : Secure
Utilize accurate stream : Yes
Defeat audio cache      : Yes
Make use of C2 pointers : No

Read offset correction                      : 6
Overread into Lead-In and Lead-Out          : No
Fill up missing offset samples with silence : Yes
Delete leading and trailing silent blocks   : No
Null samples used in CRC calculations       : Yes
Used interface                    : Installed external ASPI interface

Used output format : Internal WAV Routines
Sample format      : 44.100 Hz; 16 Bit; Stereo

TOC of the extracted CD

       Track |   Start  |  Length  | Start sector | End sector   
      ---------------------------------------------------------
          1  |  0:00.00 |  5:43.10 |         0    |    25734     
          2  |  5:43.10 |  9:36.67 |     25735    |    69001     
          3  | 15:20.02 |  6:33.65 |     69002    |    98541     
          4  | 21:53.67 | 11:48.53 |     98542    |   151694     
          5  | 33:42.45 |  8:48.45 |    151695    |   191339     
          6  | 42:31.15 |  5:56.50 |    191340    |   218089     
          7  | 48:27.65 |  4:36.05 |    218090    |   238794     
          8  | 53:03.70 |  4:22.62 |    238795    |   258506     

Range status and errors

Selected range

       Filename C:\Dave Murray - Speaking In Tongues.by.rat.eac.ape.covers.Israel-club.my1.ru\Dave Murray - Speaking In Tongues.by.rat.eac.ape.covers.Israel-club.my1.ru.wav

       Peak level 100.0 %
       Range quality 100.0 %
       Copy CRC 38180383
       Copy OK

No errors occurred

End of status report

link

Category: Jazz | Views: 310 | Added by: Rat | Rating: 0.0/0
Total comments: 0
Only registered users can add comments.
[ Registration | Login ]

«  February 2010  »
SuMoTuWeThFrSa
 123456
78910111213
14151617181920
21222324252627
28


  • Israel-club.my1.ru


  • Copyright MyCorp © 2017