Sunday, 20.08.2017, 19:14
Welcome Guest | RSS
Main
Registration
Login




Vinyl [7]
Alternative [103]
Jazz [26]
Classic rock [179]
Classical [9]
Hard & Heavy [60]
Mainstream [53]
Hip-Hop [3]
Meditative [11]
New Beats [8]
Progressive [38]
Roots [25]
OST, Campilation [28]
DTS Releases [4]
Dvd Rip [7]
DVD [7]
Lossless HTTP [54]

Rate my site
Total of answers: 17


Total online: 1
Guests: 1
Users: 0

Login form

Main » 2010 » February » 12 » David Bowie - Never Let Me Down (1987)
22:01
David Bowie - Never Let Me Down (1987)

Released: April 27, 1987
Recorded: Mountain Studios, Montreux, Switzerland 1987
Genre: Rock, Pop rock
Quality: eac-flac
Label: EMI America Records
Producer: David Bowie and David Richards

Quote
Never Let Me Down is an album by David Bowie, released April 1987. It drew some of the harshest criticism of Bowie's career, condemned by critics as a faceless piece of product and ignored by the public — Bowie himself said that the album featured good songwriting that was ruined by overly commercial and dull production. However, it featured more of Bowie's own compositions than its predecessor, Tonight.

Tracks from Never Let Me Down formed the backbone of Bowie's highly theatrical Glass Spider world tour in 1987 (an official "video album" was released from this tour which was also called Glass Spider). The album's second track, "Time Will Crawl", was also used in the French arthouse movie Les Amants du Pont Neuf (The Lovers on the Pont Neuf).

Describing the album, critic Ira Robbins wrote "although this casual loud-rock outing... seems on first blush to be slapdash and slight, the first side is actually quite good, offering provocative pop-culture lyrics delivered with first-take enthusiasm and carefree backing."[1]


1. "Day-In Day-Out" – 4:38
2. "Time Will Crawl" – 4:18
3. "Beat of Your Drum" – 4:32
4. "Never Let Me Down" (Bowie, Carlos Alomar) – 4:03
5. "Zeroes" – 5:46
6. "Glass Spider" – 4:56
7. "Shining Star (Makin' My Love)" – 4:05
8. "New York's in Love" – 3:55
9. "'87 and Cry" – 3:53
10. "Bang Bang" (Iggy Pop, Ivan Kral) – 4:02

Code
Exact Audio Copy V0.99 prebeta 4 from 23. January 2008

EAC extraction logfile from 19. December 2009, 11:39

David Bowie / Never Let Me Down

Used drive  : Optiarc DVD RW AD-7170A   Adapter: 3  ID: 0

Read mode               : Secure
Utilize accurate stream : Yes
Defeat audio cache      : Yes
Make use of C2 pointers : No

Read offset correction                      : 48
Overread into Lead-In and Lead-Out          : No
Fill up missing offset samples with silence : Yes
Delete leading and trailing silent blocks   : No
Null samples used in CRC calculations       : Yes
Used interface                    : Installed external ASPI interface

Used output format : Internal WAV Routines
Sample format      : 44.100 Hz; 16 Bit; Stereo

TOC of the extracted CD

       Track |   Start  |  Length  | Start sector | End sector   
      ---------------------------------------------------------
          1  |  0:00.00 |  5:36.53 |         0    |    25252     
          2  |  5:36.53 |  4:18.14 |     25253    |    44616     
          3  |  9:54.67 |  5:03.58 |     44617    |    67399     
          4  | 14:58.50 |  4:05.05 |     67400    |    85779     
          5  | 19:03.55 |  5:44.46 |     85780    |   111625     
          6  | 24:48.26 |  5:30.53 |    111626    |   136428     
          7  | 30:19.04 |  5:04.36 |    136429    |   159264     
          8  | 35:23.40 |  4:31.73 |    159265    |   179662     
          9  | 39:55.38 |  4:18.23 |    179663    |   199035     
         10  | 44:13.61 |  4:30.34 |    199036    |   219319     

Range status and errors

Selected range

       Filename C:\Documents and Settings\Мои документы\David.Bowie.-.Never Let.Me.Down.covers.flac.by.rat.Israel-club.my1.ru\David.Bowie.-.Never Let.Me.Down.covers.flac.by.rat.Israel-club.my1.ru.wav

       Peak level 98.9 %
       Range quality 99.9 %
       Copy CRC 674DB91E
       Copy OK

No errors occurred

End of status report

DOWNLOAD

Category: Classic rock | Views: 328 | Added by: Rat | Rating: 0.0/0
Total comments: 0
Only registered users can add comments.
[ Registration | Login ]

«  February 2010  »
SuMoTuWeThFrSa
 123456
78910111213
14151617181920
21222324252627
28


  • Israel-club.my1.ru


  • Copyright MyCorp © 2017