Friday, 18.08.2017, 03:23
Welcome Guest | RSS
Main
Registration
Login




Vinyl [7]
Alternative [103]
Jazz [26]
Classic rock [179]
Classical [9]
Hard & Heavy [60]
Mainstream [53]
Hip-Hop [3]
Meditative [11]
New Beats [8]
Progressive [38]
Roots [25]
OST, Campilation [28]
DTS Releases [4]
Dvd Rip [7]
DVD [7]
Lossless HTTP [54]

Rate my site
Total of answers: 17


Total online: 1
Guests: 1
Users: 0

Login form

Main » 2010 » November » 23 » Цвет Алоэ - Нежность (2010)
14:57
Цвет Алоэ - Нежность (2010)

GENRE: pop rock 
COUNTRY: belarus 
YEAR: 2010 
LABLE: west records 
CT. NUMBER: wr0271 
QUALITY: APE (*.ape) 
TIME: 46 
RELEASE BY: rat24 
COVERS: YES

Треклист: 
01. Сладкие места [0:03:09.13] 
02. Девочки манерные [0:03:31.08] 
03. Нежность [0:04:22.48] 
04. Привет [0:03:18.16] 
05. Любовь [0:04:00.63] 
06. Белым снегом [0:03:11.10] 
07. Развлекайся [0:03:05.28] 
08. Девочка конфетка [0:02:51.71] 
09. Прости [0:04:22.10] 
10. Имя твое [0:03:20.53] 
11. На память [0:03:52.24] 
12. Нежность (ремикс. с Чим) [0:03:56.50]
 
Лог создания рипа 

Code
Exact Audio Copy V0.99 prebeta 4 from 23. January 2008 

EAC extraction logfile from 22. November 2010, 16:36 

Цвет Алоэ / Нежность 

Used drive  : HL-DT-STDVD-RAM GH22NP20   Adapter: 3  ID: 0 

Read mode               : Secure 
Utilize accurate stream : Yes 
Defeat audio cache      : Yes 
Make use of C2 pointers : No 

Read offset correction                      : 102 
Overread into Lead-In and Lead-Out          : No 
Fill up missing offset samples with silence : Yes 
Delete leading and trailing silent blocks   : No 
Null samples used in CRC calculations       : Yes 
Used interface                    : Installed external ASPI interface 
Gap handling                    : Not detected, thus appended to previous track 

Used output format : Internal WAV Routines 
Sample format      : 44.100 Hz; 16 Bit; Stereo 

TOC of the extracted CD 

        Track |   Start  |  Length  | Start sector | End sector 
       --------------------------------------------------------- 
           1  |  0:00.00 | 23:19.68 |         0    |   104992 
           2  | 23:19.68 |  3:09.13 |    104993    |   119180 
           3  | 26:29.06 |  3:31.08 |    119181    |   135013 
           4  | 30:00.14 |  4:22.48 |    135014    |   154711 
           5  | 34:22.62 |  3:18.16 |    154712    |   169577 
           6  | 37:41.03 |  4:00.63 |    169578    |   187640 
           7  | 41:41.66 |  3:11.10 |    187641    |   201975 
           8  | 44:53.01 |  3:05.28 |    201976    |   215878 
           9  | 47:58.29 |  2:51.71 |    215879    |   228774 
          10  | 50:50.25 |  4:22.10 |    228775    |   248434 
          11  | 55:12.35 |  3:20.53 |    248435    |   263487 
          12  | 58:33.13 |  3:52.24 |    263488    |   280911 
          13  | 62:25.37 |  3:56.50 |    280912    |   298661 

Track  2 

        Filename C:\Documents and Settings\Мои документы\Цвет Алоэ - Нежность.eac.covers.by.rat.lossless-muz.ucoz.com\Сладкие места.wav 

        Peak level 100.0 % 
        Track quality 100.0 % 
        Copy CRC 074BB42B 
        Track not present in AccurateRip database 
        Copy OK 

Track  3 

        Filename C:\Documents and Settings\Мои документы\Цвет Алоэ - Нежность.eac.covers.by.rat.lossless-muz.ucoz.com\Девочки манерные.wav 

        Peak level 100.0 % 
        Track quality 100.0 % 
        Copy CRC E042F2A8 
        Track not present in AccurateRip database 
        Copy OK 

Track  4 

        Filename C:\Documents and Settings\Мои документы\Цвет Алоэ - Нежность.eac.covers.by.rat.lossless-muz.ucoz.com\Нежность.wav 

        Peak level 100.0 % 
        Track quality 99.9 % 
        Copy CRC A92984E5 
        Track not present in AccurateRip database 
        Copy OK 

Track  5 

        Filename C:\Documents and Settings\Мои документы\Цвет Алоэ - Нежность.eac.covers.by.rat.lossless-muz.ucoz.com\Привет.wav 

        Peak level 100.0 % 
        Track quality 99.9 % 
        Copy CRC 0528C75A 
        Track not present in AccurateRip database 
        Copy OK 

Track  6 

        Filename C:\Documents and Settings\Мои документы\Цвет Алоэ - Нежность.eac.covers.by.rat.lossless-muz.ucoz.com\Любовь.wav 

        Peak level 100.0 % 
        Track quality 100.0 % 
        Copy CRC 61ADBCF5 
        Track not present in AccurateRip database 
        Copy OK 

Track  7 

        Filename C:\Documents and Settings\Мои документы\Цвет Алоэ - Нежность.eac.covers.by.rat.lossless-muz.ucoz.com\Белым снегом.wav 

        Peak level 100.0 % 
        Track quality 100.0 % 
        Copy CRC 109D4856 
        Track not present in AccurateRip database 
        Copy OK 

Track  8 

        Filename C:\Documents and Settings\Мои документы\Цвет Алоэ - Нежность.eac.covers.by.rat.lossless-muz.ucoz.com\Развлекайся.wav 

        Peak level 100.0 % 
        Track quality 100.0 % 
        Copy CRC DA2D1569 
        Track not present in AccurateRip database 
        Copy OK 

Track  9 

        Filename C:\Documents and Settings\Мои документы\Цвет Алоэ - Нежность.eac.covers.by.rat.lossless-muz.ucoz.com\Девочка конфетка.wav 

        Peak level 100.0 % 
        Track quality 100.0 % 
        Copy CRC 4AF404E2 
        Track not present in AccurateRip database 
        Copy OK 

Track 10 

        Filename C:\Documents and Settings\Мои документы\Цвет Алоэ - Нежность.eac.covers.by.rat.lossless-muz.ucoz.com\Прости.wav 

        Peak level 100.0 % 
        Track quality 100.0 % 
        Copy CRC 1CE2B62E 
        Track not present in AccurateRip database 
        Copy OK 

Track 11 

        Filename C:\Documents and Settings\Мои документы\Цвет Алоэ - Нежность.eac.covers.by.rat.lossless-muz.ucoz.com\Имя твое.wav 

        Peak level 100.0 % 
        Track quality 100.0 % 
        Copy CRC 0852795A 
        Track not present in AccurateRip database 
        Copy OK 

Track 12 

        Filename C:\Documents and Settings\Мои документы\Цвет Алоэ - Нежность.eac.covers.by.rat.lossless-muz.ucoz.com\На память.wav 

        Peak level 100.0 % 
        Track quality 100.0 % 
        Copy CRC D27F6133 
        Track not present in AccurateRip database 
        Copy OK 

Track 13 

        Filename C:\Documents and Settings\Мои документы\Цвет Алоэ - Нежность.eac.covers.by.rat.lossless-muz.ucoz.com\Нежность (ремикс. с Чим).wav 

        Peak level 100.0 % 
        Track quality 100.0 % 
        Copy CRC A4B48CF3 
        Track not present in AccurateRip database 
        Copy OK 

None of the tracks are present in the AccurateRip database 

No errors occurred 

End of status report

Quote
Доп. информация: На диске под номером один идет видеоклип. На данном релизе он отсутствует. Трэк 2 соответствует трэку 1.

Об исполнителе (группе) 
http://www.cvetaloe.ru

Об альбоме (сборнике) 
http://www.youtube.com/watch?v=_jKv7YzBJK8

CVET ALOE 
http://www.cvetaloe.ru

VIDEO 
http://www.youtube.com/watch?v=_jKv7YzBJK8

DOWNLOAD

Category: Roots | Views: 358 | Added by: Rat | Rating: 0.0/0
Total comments: 1
0   Spam
1 Rat   (26.11.2010 16:21)
reshare

Only registered users can add comments.
[ Registration | Login ]

«  November 2010  »
SuMoTuWeThFrSa
 123456
78910111213
14151617181920
21222324252627
282930


  • Israel-club.my1.ru


  • Copyright MyCorp © 2017