Saturday, 19.08.2017, 13:19
Welcome Guest | RSS
Main
Registration
Login




Vinyl [7]
Alternative [103]
Jazz [26]
Classic rock [179]
Classical [9]
Hard & Heavy [60]
Mainstream [53]
Hip-Hop [3]
Meditative [11]
New Beats [8]
Progressive [38]
Roots [25]
OST, Campilation [28]
DTS Releases [4]
Dvd Rip [7]
DVD [7]
Lossless HTTP [54]

Rate my site
Total of answers: 17


Total online: 1
Guests: 1
Users: 0

Login form

Main » 2010 » February » 5 » Cold Chisel - Twentieth Century (1984/99) (rem + 2 bonus)
23:19
Cold Chisel - Twentieth Century (1984/99) (rem + 2 bonus)

Artist: Cold Chisel
Album: Twentieth Century
Released: 1984
Genre:Aussie Rock
Format: eac/ape

Quote
During breaks in the tour, Twentieth Century was recorded. It was a fragmentary process, spread across various studios and sessions as the individual members often refused to work together, but nonetheless successful. Released in February 1984, it reached No. 1 upon release and included the songs "Saturday Night" and "Flame Trees", both of which remain radio staples. "Flame Trees", co-written by Prestwich and Walker, took its title from the BBC series The Flame Trees of Thika although it was lyrically inspired by the organist's hometown of Grafton, New South Wales. Barnes later recorded an acoustic version of the song on his 1993 album Flesh and Wood and the track was also covered by Sarah Blasko in 2006.

01. Build This Love [0:03:55.15]
02. Twentieth Century [0:02:17.00]
03. Ghost Town [0:01:20.57]
04. Saturday Night [0:04:22.38]
05. Painted Doll [0:02:19.52]
06. No Sense [0:02:59.15]
07. Flame Trees [0:04:26.15]
08. Only One [0:03:40.60]
09. Hold Me Tight [0:01:44.18]
10. Sing To Me [0:04:51.05]
11. The Game [0:04:10.57]
12. Janelle [0:03:38.60]
13. Temptation [0:03:37.35]
bonus trx
14. Nothing But You [0:04:30.15]
15. Yesterdays [0:04:03.05]

Code
Exact Audio Copy V0.99 prebeta 4 from 23. January 2008

EAC extraction logfile from 16. April 2009, 21:26

Cold Chisel / Twentieth Century

Used drive  : Optiarc DVD RW AD-7170A   Adapter: 3  ID: 0

Read mode               : Secure
Utilize accurate stream : Yes
Defeat audio cache      : Yes
Make use of C2 pointers : No

Read offset correction                      : 48
Overread into Lead-In and Lead-Out          : No
Fill up missing offset samples with silence : Yes
Delete leading and trailing silent blocks   : No
Null samples used in CRC calculations       : Yes
Used interface                    : Installed external ASPI interface

Used output format : Internal WAV Routines
Sample format      : 44.100 Hz; 16 Bit; Stereo

TOC of the extracted CD

       Track |   Start  |  Length  | Start sector | End sector   
      ---------------------------------------------------------
          1  |  0:00.00 |  3:55.15 |         0    |    17639     
          2  |  3:55.15 |  2:17.00 |     17640    |    27914     
          3  |  6:12.15 |  1:20.57 |     27915    |    33971     
          4  |  7:32.72 |  4:22.38 |     33972    |    53659     
          5  | 11:55.35 |  2:19.52 |     53660    |    64136     
          6  | 14:15.12 |  2:59.15 |     64137    |    77576     
          7  | 17:14.27 |  4:26.15 |     77577    |    97541     
          8  | 21:40.42 |  3:40.60 |     97542    |   114101     
          9  | 25:21.27 |  1:44.18 |    114102    |   121919     
         10  | 27:05.45 |  4:51.05 |    121920    |   143749     
         11  | 31:56.50 |  4:10.57 |    143750    |   162556     
         12  | 36:07.32 |  3:38.60 |    162557    |   178966     
         13  | 39:46.17 |  3:37.35 |    178967    |   195276     
         14  | 43:23.52 |  4:30.15 |    195277    |   215541     
         15  | 47:53.67 |  4:03.05 |    215542    |   233771     

Range status and errors

Selected range

       Filename C:\Documents and Settings\Мои документы\Cold.Chisel.-.Twentieth.Century.rat.eac.ape.covers.Israel-club.my1.ru\Cold.Chisel.-.Twentieth.Century.rat.eac.ape.covers.Israel-cl  ub.my1.ru.wav

       Peak level 100.0 %
       Range quality 99.9 %
       Copy CRC 26C57E81
       Copy OK

No errors occurred

End of status report

My WebPage

Category: Classic rock | Views: 360 | Added by: Rat | Rating: 0.0/0
Total comments: 0
Only registered users can add comments.
[ Registration | Login ]

«  February 2010  »
SuMoTuWeThFrSa
 123456
78910111213
14151617181920
21222324252627
28


  • Israel-club.my1.ru


  • Copyright MyCorp © 2017