Friday, 18.08.2017, 18:33
Welcome Guest | RSS
Main
Registration
Login




Vinyl [7]
Alternative [103]
Jazz [26]
Classic rock [179]
Classical [9]
Hard & Heavy [60]
Mainstream [53]
Hip-Hop [3]
Meditative [11]
New Beats [8]
Progressive [38]
Roots [25]
OST, Campilation [28]
DTS Releases [4]
Dvd Rip [7]
DVD [7]
Lossless HTTP [54]

Rate my site
Total of answers: 17


Total online: 1
Guests: 1
Users: 0

Login form

Main » 2011 » January » 20 » Cliff Richard - Now You See Me... Now You Don't (1982/2002)
18:37
Cliff Richard - Now You See Me... Now You Don't (1982/2002)

Artist: Cliff Richard 
Album: Now You See Me... Now You Don't 
Released: 1982/2002 
Genre: rock/Pop 
Format: eac-ape

Quote
Cliff joins forces with his Christian and commercial tastes to present this excellent example of Rockspell. The music sets a high standard both commercially and spiritually, with the hits: The Only Way Out and Little Town. It marks atime of great B sides too and the addition here of Under the Influence, Love and a Helping Hand as well as You Me and Jesus, make this a perfect souvenir of that time. The only mistake was EMI forgetting to add the lyrics to these new songs.

01 The Only Way Out [0:03:24.22] 
02 First Date [0:03:34.52] 
03 Thief In The Night [0:03:57.15] 
04 Where Do We Go From Here [0:02:58.49] 
05 Son Of Thunder [0:04:00.44] 
06 Little Town [0:04:08.49] 
07 It Has To Be You / It Has To Be Me [0:04:21.28] 
08 The Water Is Wide / 08 The Water Is Wide [0:03:51.64] 
09 Now You See Me / Now You Don't [0:03:02.13] 
10. 10 Be In My Heart / 10 Be In My Heart [0:04:38.71] 
11 / Discovering [0:04:49.47] 
12 Under The Influence (Bonus Track) [0:02:50.33] 
13 Love And A Helping Hand (Bonus Track) [0:03:07.53] 
14 You, Me And Jesus (Bonus Track) [0:02:19.64]

Code
Exact Audio Copy V0.99 prebeta 4 from 23. January 2008 

EAC extraction logfile from 19. January 2011, 18:52 

Cliff Richard  / Now You See Me... Now You Don't   

Used drive  : HL-DT-STDVD-RAM GH22NP20   Adapter: 3  ID: 0 

Read mode               : Secure 
Utilize accurate stream : Yes 
Defeat audio cache      : Yes 
Make use of C2 pointers : No 

Read offset correction                      : 102 
Overread into Lead-In and Lead-Out          : No 
Fill up missing offset samples with silence : Yes 
Delete leading and trailing silent blocks   : No 
Null samples used in CRC calculations       : Yes 
Used interface                    : Installed external ASPI interface 

Used output format : Internal WAV Routines 
Sample format      : 44.100 Hz; 16 Bit; Stereo 

TOC of the extracted CD 

       Track |   Start  |  Length  | Start sector | End sector   
      --------------------------------------------------------- 
          1  |  0:00.00 |  3:24.22 |         0    |    15321     
          2  |  3:24.22 |  3:34.52 |     15322    |    31423     
          3  |  6:58.74 |  3:57.15 |     31424    |    49213     
          4  | 10:56.14 |  2:58.49 |     49214    |    62612     
          5  | 13:54.63 |  4:00.44 |     62613    |    80656     
          6  | 17:55.32 |  4:08.49 |     80657    |    99305     
          7  | 22:04.06 |  4:21.28 |     99306    |   118908     
          8  | 26:25.34 |  3:51.64 |    118909    |   136297     
          9  | 30:17.23 |  3:02.13 |    136298    |   149960     
         10  | 33:19.36 |  4:38.71 |    149961    |   170881     
         11  | 37:58.32 |  4:49.47 |    170882    |   192603     
         12  | 42:48.04 |  2:50.33 |    192604    |   205386     
         13  | 45:38.37 |  3:07.53 |    205387    |   219464     
         14  | 48:46.15 |  2:19.64 |    219465    |   229953     

Range status and errors 

Selected range 

       Filename C:\Documents and Settings\Мои документы\Cliff Richard  - Now You See Me... Now You Don't.rem.eac.ape.by.rat.lossless-muz.ucozt\Cliff Richard  - Now You See Me... Now You Don't.rem.eac.ape.by.rat.lossless-muz.ucozt.wav 

       Peak level 100.0 % 
       Range quality 100.0 % 
       Copy CRC 783D890F 
       Copy OK 

No errors occurred 

     
AccurateRip summary 
     
Track  1  not present in database 
Track  2  not present in database 
Track  3  not present in database 
Track  4  not present in database 
Track  5  not present in database 
Track  6  not present in database 
Track  7  not present in database 
Track  8  not present in database 
Track  9  not present in database 
Track 10  not present in database 
Track 11  not present in database 
Track 12  not present in database 
Track 13  not present in database 
Track 14  not present in database 
     
None of the tracks are present in the AccurateRip database 

End of status report

download 

Category: Classic rock | Views: 222 | Added by: Rat | Rating: 0.0/0
Total comments: 0
Only registered users can add comments.
[ Registration | Login ]

«  January 2011  »
SuMoTuWeThFrSa
      1
2345678
9101112131415
16171819202122
23242526272829
3031


  • Israel-club.my1.ru


  • Copyright MyCorp © 2017