Sunday, 20.08.2017, 05:51
Welcome Guest | RSS
Main
Registration
Login




Vinyl [7]
Alternative [103]
Jazz [26]
Classic rock [179]
Classical [9]
Hard & Heavy [60]
Mainstream [53]
Hip-Hop [3]
Meditative [11]
New Beats [8]
Progressive [38]
Roots [25]
OST, Campilation [28]
DTS Releases [4]
Dvd Rip [7]
DVD [7]
Lossless HTTP [54]

Rate my site
Total of answers: 17


Total online: 1
Guests: 1
Users: 0

Login form

Main » 2012 » March » 30 » Chrome Division - Doomsday Rock'n'Roll (2006)
16:14
Chrome Division - Doomsday Rock'n'Roll (2006)
 

Артист: Chrome Division 
Альбом: Doomsday Rock'n'Roll, 2006 
Издатель: Nuclear Blast / NB 1665-2 
Жанр: brutalo rock'n'roll, Death'n'Roll 
Формат файла: WV/ISO
 

tHNX FOR RELEASE TO Гордый 

TRACKLIST 
1. Doomsday Overture [0:01:30.10] 
2. Serial Killer [0:03:45.37] 
3. Hate [0:03:49.43] 
4. Trouble With the Law [0:04:43.56] 
5. Chrome Division [0:03:50.11] 
6. Here Comes Another One [0:03:03.64] 
7. 1st Regiment [0:05:24.36] 
8. Breath Easy [0:03:46.24] 
9. The Angel Falls [0:04:16.05] 
10. Till the Break of Dawn [0:03:29.28] 
11. We Want More [0:06:16.55] 
12. When the Shit Hits the Fan [0:02:07.74] 

Рецензии: 
Quote
Вопрос на засыпку: как вы думаете, какую музыку играет в своем сайд-проекте человек, которого принято считать голосом симфо-блэка, а именно Шаграт из Dimmu Borgir? Даже не пытайтесь угадать, ибо это вовсе не ретро-дэт и не экстремальная электроника, как логично было бы предположить, а гибрид из... Motorhead и новой волны скандинавского глэм-рока в духе Crash Diet и Hardcore Superstar! Послушав интро и первый трек "Serial Killer", я был просто в шоке, потому что меньше всего предполагал, что Шаграту интересно будет играть такую музыку. Конечно, гитары и общее звучание здесь куда тяжелее, чем у Motorhead и тем более Hardcore Superstar, но ведь по сути это глэм – хулиганская музыка пропитых парней с текстами про крутых девчонок, проблемы с законом и неприятие в обществе. В течение еще пары песен я продолжал недоумевать, однако потом осознал простую вещь – мне нравится эта музыка! Пускай слышать такое от Шаграта в высшей степени неожиданно, но ведь он сочинил для "Doomsday Rock’N’Roll" целую охапку отличнейших драйвовых песен – "Trouble With The Law", "Hate", "Here Comes Another One", "We Want More" и т.д. Причем здесь есть не только энергетика, но и мелодика, чего порой так недостает тем же Motorhead, а низкий хриплый вокал Эдди Гуза из Carburetors (Шаграт здесь не поет, а только играет на гитаре) может посоперничать по агрессивности и эмоциональности с большинством схожих по тембру глэмовых вокалистов как старой, так и новой школы. Возможно, на титул "Открытие года" Chrome Division не тянут – все-таки в этой музыке практически все возможное было сыграно задолго до них, но на звание "Сюрприз года" они пока что главные претенденты. 

Шаграт (Dimmu Borgir) презентует свой проект, название альбома которого говорит само за себя: рок-н-ролл как он есть. В этом жанре все уже давно сказано, и Chrome Division ничего нового придумать и не пытаются: традиционный набор "пиво, девки, рок-н-ролл", прокуренный голос и атмосфера угара и беззаботности - вот что вы получите от этих утянутых в джинсы и кожаные куртки молодчиков.


Code
SPOILER (EAC LOG) 
Exact Audio Copy V0.99 prebeta 5 from 4. May 2009 

EAC extraction logfile from 

Chrome Division / Doomsday Rock'n'Roll 

Used drive : HL-DT-STDVD-ROM DH16NS10 Adapter: 5 ID: 0 

Read mode : Secure 
Utilize accurate stream : Yes 
Defeat audio cache : Yes 
Make use of C2 pointers : No 

Read offset correction : 102 
Overread into Lead-In and Lead-Out : Yes 
Fill up missing offset samples with silence : Yes 
Delete leading and trailing silent blocks : No 
Null samples used in CRC calculations : Yes 
Used interface : Installed external ASPI interface 

Used output format : Internal WAV Routines 
Sample format : 44.100 Hz; 16 Bit; Stereo 

TOC of the extracted CD 

Track | Start | Length | Start sector | End sector  
--------------------------------------------------------- 
1 | 0:00.00 | 1:30.10 | 0 | 6759  
2 | 1:30.10 | 3:45.37 | 6760 | 23671  
3 | 5:15.47 | 3:49.43 | 23672 | 40889  
4 | 9:05.15 | 4:43.56 | 40890 | 62170  
5 | 13:48.71 | 3:50.11 | 62171 | 79431  
6 | 17:39.07 | 3:03.64 | 79432 | 93220  
7 | 20:42.71 | 5:24.36 | 93221 | 117556  
8 | 26:07.32 | 3:46.24 | 117557 | 134530  
9 | 29:53.56 | 4:16.05 | 134531 | 153735  
10 | 34:09.61 | 3:29.28 | 153736 | 169438  
11 | 37:39.14 | 6:16.55 | 169439 | 197693  
12 | 43:55.69 | 2:07.74 | 197694 | 207292  

Range status and errors 

Selected range 

Filename  

Peak level 100.0 % 
Range quality 100.0 % 
Test CRC 107723BD 
Copy CRC 107723BD 
Copy OK 

No errors occurred 

AccurateRip summary 

Track 1 accurately ripped (confidence 4) [BC057039] 
Track 2 accurately ripped (confidence 4) [6B6CABE1] 
Track 3 accurately ripped (confidence 4) [36B27252] 
Track 4 accurately ripped (confidence 4) [4DDB791B] 
Track 5 accurately ripped (confidence 4) [031D3D7E] 
Track 6 accurately ripped (confidence 4) [831AB357] 
Track 7 accurately ripped (confidence 4) [4C0B7BB5] 
Track 8 accurately ripped (confidence 4) [ED6C0392] 
Track 9 accurately ripped (confidence 4) [1FA74AE3] 
Track 10 accurately ripped (confidence 4) [6D91EACF] 
Track 11 accurately ripped (confidence 4) [C999DD5A] 
Track 12 accurately ripped (confidence 4) [7F2CD7D1] 

All tracks accurately ripped 

End of status report


DOWNLOAD
Category: Hard & Heavy | Views: 562 | Added by: Rat | Rating: 5.0/2
Total comments: 0
Only registered users can add comments.
[ Registration | Login ]

«  March 2012  »
SuMoTuWeThFrSa
    123
45678910
11121314151617
18192021222324
25262728293031


  • Israel-club.my1.ru


  • Copyright MyCorp © 2017