Sunday, 25.06.2017, 10:57
Welcome Guest | RSS
Main
Registration
Login




Vinyl [7]
Alternative [103]
Jazz [26]
Classic rock [179]
Classical [9]
Hard & Heavy [60]
Mainstream [53]
Hip-Hop [3]
Meditative [11]
New Beats [8]
Progressive [38]
Roots [25]
OST, Campilation [28]
DTS Releases [4]
Dvd Rip [7]
DVD [7]
Lossless HTTP [54]

Rate my site
Total of answers: 17


Total online: 3
Guests: 3
Users: 0

Login form

Main » 2011 » April » 13 » Chris Rea - King of the beach (2000)
19:00
Chris Rea - King of the beach (2000)

Audio CD (October 10, 2000) 
Number of Discs: 1 
Format: eac-flac 
Label: Wea Int'l

Quote
Personnel

Chris Rea - vocals, guitar, bass, keyboards, Hammond organ, drum programming, producer 
Max Middleton - Rhodes piano 
Pete Wingfield - Hammond organ 
Martin Ditcham - drums, percussion 
Julie Isaac - backing vocals 
Debbie Longworth - backing vocals 
Neil Amor - engineer 
Arun Chakraverty - mastering 
Tommy Willis - coordination 
John Knowles - management 
Peacock - design, illustrations 
John Miller - cover painting 
All songs by Chris Rea.

"King of the Beach" - 5:00 
"All Summer Long" - 5:14 
"Sail Away" - 4:48 
"Still Beautiful" - 4:10 
"The Bones of Angels" - 4:15 
"Guitar Street" - 4:42 
"Who Do You Love" - 4:52 
"The Memory of a Good Friend" - 3:55 
"Sandwriting" - 5:08 
"Tamatave" - 5:17 
"God Gave Me an Angel" - 2:59 
"Waiting for a Blue Sky" - 5:02 
"Mississippi" - 4:29 

Code
Exact Audio Copy V0.99 prebeta 4 from 23. January 2008 

EAC extraction logfile from 4. April 2011, 8:31 

Chris Rea / King Of The Beach 

Used drive  : TSSTcorpCD/DVDW SH-W162L   Adapter: 3  ID: 1 

Read mode               : Secure 
Utilize accurate stream : Yes 
Defeat audio cache      : Yes 
Make use of C2 pointers : No 

Read offset correction                      : 6 
Overread into Lead-In and Lead-Out          : No 
Fill up missing offset samples with silence : Yes 
Delete leading and trailing silent blocks   : No 
Null samples used in CRC calculations       : Yes 
Used interface                    : Installed external ASPI interface 

Used output format : Internal WAV Routines 
Sample format      : 44.100 Hz; 16 Bit; Stereo 

TOC of the extracted CD 

      Track |   Start  |  Length  | Start sector | End sector  
     --------------------------------------------------------- 
         1  |  0:00.00 |  4:59.38 |         0    |    22462    
         2  |  4:59.38 |  5:08.30 |     22463    |    45592    
         3  | 10:07.68 |  4:47.35 |     45593    |    67152    
         4  | 14:55.28 |  4:09.73 |     67153    |    85900    
         5  | 19:05.26 |  4:15.30 |     85901    |   105055    
         6  | 23:20.56 |  4:43.41 |    105056    |   126321    
         7  | 28:04.22 |  4:51.61 |    126322    |   148207    
         8  | 32:56.08 |  3:54.03 |    148208    |   165760    
         9  | 36:50.11 |  5:07.48 |    165761    |   188833    
        10  | 41:57.59 |  5:17.13 |    188834    |   212621    
        11  | 47:14.72 |  2:59.08 |    212622    |   226054    
        12  | 50:14.05 |  5:01.45 |    226055    |   248674    

Range status and errors 

Selected range 

      Filename C:\Documents and Settings\Мои документы\Chris Rea - King of the beach.eac.covers.by.rat.lossless-muz.ucoz.com\Chris Rea - King of the beach.eac.covers.by.rat.lossless-muz.ucoz.wav 

      Peak level 97.9 % 
      Range quality 99.9 % 
      Copy CRC 057BDEA8 
      Copy OK 

No errors occurred 

End of status report 

download
Category: Classic rock | Views: 223 | Added by: Rat | Rating: 0.0/0
Total comments: 0
Only registered users can add comments.
[ Registration | Login ]

«  April 2011  »
SuMoTuWeThFrSa
     12
3456789
10111213141516
17181920212223
24252627282930


  • Israel-club.my1.ru


  • Copyright MyCorp © 2017