Sunday, 20.08.2017, 19:23
Welcome Guest | RSS
Main
Registration
Login




Vinyl [7]
Alternative [103]
Jazz [26]
Classic rock [179]
Classical [9]
Hard & Heavy [60]
Mainstream [53]
Hip-Hop [3]
Meditative [11]
New Beats [8]
Progressive [38]
Roots [25]
OST, Campilation [28]
DTS Releases [4]
Dvd Rip [7]
DVD [7]
Lossless HTTP [54]

Rate my site
Total of answers: 17


Total online: 1
Guests: 1
Users: 0

Login form

Main » 2010 » February » 15 » Chris Isaak - Mr. Lucky (2009)
22:44
Chris Isaak - Mr. Lucky (2009)

Category: soft rock
Label: Reprise
Format: eac-ape
Size: 360 mb
Street Date: February 24, 2009

CD:

Quote
It has been 7 years since the last original work by Chris Issak, and I have been waiting for this release like it was Christmas Day.

First off the two guests singers are long time Chris Issak friends (both were guests on his show) and their duets were well done and seemed like a natural pairing.
These are my two favorite songs and Breaking Apart which is a remake is better than the original. I really liked Michele Branch's duet it was almost like the song was written for her.

The title Mr. Lucky would make you think this a happy album and filled with love and surfer themes. It actually has more than one sad song where it seems as though Chris Issak is longing for a long lost love. Dont worry there are also some really uplifting songs where Chris has found love again! All in all this cd is more about love than some of his previous albums that seemed to fit the bill of travel / surf / San Francisco.

As far as the sound goes it still sounds great and honest. Every song has Chris Issak pouring his heart out. Just listening to it makes me think of a fire place a six pack of beer and friends.

I honestly liked every song and the album flows well and tells the story of broken love to rekindling love. In my opinion this is a more mature Chris Issak and I dare say his best album yet. It has been 7 long years and this album does not disapoint. This is a must have for any Chris Issak fan and I would strong suggest to anyone that is looking for a singer with a great voice and a strong backing band.

01. Cheater's Town [0:03:37.25]
02. We Let Her Down [0:03:21.27]
03. You Don't Cry Like I Do [0:04:11.45]
04. We've Got Tommorow [0:02:22.10]
05. Breaking Apart [0:03:39.05]
06. Baby Baby [0:03:15.00]
07. Mr. Lonely Man [0:02:41.00]
08. I Lose My Heart [0:02:57.40]
09. Summer Holiday [0:03:05.70]
10. Best I Ever Had [0:04:11.03]
11. We Lost Our Way [0:03:38.60]
12. Very Pretty Girl [0:04:20.12]
13. Take My Heart [0:02:23.00]
14. Big Wide Wonderful World [0:04:05.25]
15. I got it Bad [0:04:21.53]
16. Dream Deferred [0:03:03.42]

Code
Exact Audio Copy V0.99 prebeta 4 from 23. January 2008

EAC extraction logfile from 12. March 2009, 22:01

Chris Isaak /  Mr. Lucky   

Used drive  : TSSTcorpCD/DVDW SH-W162L   Adapter: 3  ID: 1

Read mode               : Secure
Utilize accurate stream : Yes
Defeat audio cache      : Yes
Make use of C2 pointers : No

Read offset correction                      : 6
Overread into Lead-In and Lead-Out          : No
Fill up missing offset samples with silence : Yes
Delete leading and trailing silent blocks   : No
Null samples used in CRC calculations       : Yes
Used interface                    : Installed external ASPI interface

Used output format : Internal WAV Routines
Sample format      : 44.100 Hz; 16 Bit; Stereo

TOC of the extracted CD

       Track |   Start  |  Length  | Start sector | End sector   
      ---------------------------------------------------------
          1  |  0:00.00 |  3:37.25 |         0    |    16299     
          2  |  3:37.25 |  3:21.27 |     16300    |    31401     
          3  |  6:58.52 |  4:11.45 |     31402    |    50271     
          4  | 11:10.22 |  2:22.10 |     50272    |    60931     
          5  | 13:32.32 |  3:39.05 |     60932    |    77361     
          6  | 17:11.37 |  3:15.00 |     77362    |    91986     
          7  | 20:26.37 |  2:41.00 |     91987    |   104061     
          8  | 23:07.37 |  2:57.40 |    104062    |   117376     
          9  | 26:05.02 |  3:05.70 |    117377    |   131321     
         10  | 29:10.72 |  4:11.03 |    131322    |   150149     
         11  | 33:22.00 |  3:38.60 |    150150    |   166559     
         12  | 37:00.60 |  4:20.12 |    166560    |   186071     
         13  | 41:20.72 |  2:23.00 |    186072    |   196796     
         14  | 43:43.72 |  4:05.25 |    196797    |   215196     
         15  | 47:49.22 |  4:21.53 |    215197    |   234824     
         16  | 52:11.00 |  3:03.42 |    234825    |   248591     

Range status and errors

Selected range

       Filename C:\Chris Isaak -  Mr. Lucky.by.rat.eac.ape.covers.Israel-club.my1.ru\Chris Isaak -  Mr. Lucky.by.rat.eac.ape.covers.Israel-club.my1.ru.wav

       Peak level 98.7 %
       Range quality 99.9 %
       Copy CRC 0A2CB86C
       Copy OK

No errors occurred

End of status report

My WebPage

Category: Classic rock | Views: 290 | Added by: Rat | Rating: 0.0/0
Total comments: 0
Only registered users can add comments.
[ Registration | Login ]

«  February 2010  »
SuMoTuWeThFrSa
 123456
78910111213
14151617181920
21222324252627
28


  • Israel-club.my1.ru


  • Copyright MyCorp © 2017