Thursday, 14.12.2017, 02:21
Welcome Guest | RSS
Main
Registration
Login




Vinyl [7]
Alternative [103]
Jazz [26]
Classic rock [179]
Classical [9]
Hard & Heavy [60]
Mainstream [53]
Hip-Hop [3]
Meditative [11]
New Beats [8]
Progressive [38]
Roots [25]
OST, Campilation [28]
DTS Releases [4]
Dvd Rip [7]
DVD [7]
Lossless HTTP [54]

Rate my site
Total of answers: 17


Total online: 1
Guests: 1
Users: 0

Login form

Main » 2010 » June » 23 » Cheap Trick - The Latest (2009)
22:30
Cheap Trick - The Latest (2009)

# Original Release Date: 2009
# Genre: Aor/classic/pop rock
# Qality: EAC_APE

Quote
THE LATEST IS THEIR GREATEST

Cheap Trick has outdone themselves on their latest recording "The Latest." At times criticized for being a "fun" band without substance, Cheap Trick proves to the critics and naysayers that they are capable of producing exceptional pieces of deep, meaningful music- while still rocking out as much if not better than the numerous younger bands they've influenced along the way. "The Latest" is certain to become a classic in the Cheap Trick canon, without a doubt one of the best things they've ever done.

01. Sleep Forever [0:01:36.51]
02. When The Lights Are Out [0:03:25.72]
03. Miss Tomorrow [0:04:11.08]
04. Sick Man Of Europe [0:02:07.62]
05. These Days [0:02:44.26]
06. Miracle [0:03:47.30]
07. Everyday You Make Me Crazy [0:01:17.22]
08. California Girl [0:02:47.08]
09. Everybody Knows [0:04:16.24]
10. Alive [0:03:36.29]
11. Times Of Our Lives [0:03:59.19]
12. Closer, The Ballad Of Burt And Linda [0:02:59.73]
13. Smile [0:04:12.13]

Code
Exact Audio Copy V0.99 prebeta 4 from 23. January 2008

EAC extraction logfile from 21. June 2010, 22:25

Cheap Trick / The Latest

Used drive  : Optiarc DVD RW AD-7170A   Adapter: 3  ID: 0

Read mode               : Secure
Utilize accurate stream : Yes
Defeat audio cache      : Yes
Make use of C2 pointers : No

Read offset correction                      : 48
Overread into Lead-In and Lead-Out          : No
Fill up missing offset samples with silence : Yes
Delete leading and trailing silent blocks   : No
Null samples used in CRC calculations       : Yes
Used interface                    : Installed external ASPI interface

Used output format : Internal WAV Routines
Sample format      : 44.100 Hz; 16 Bit; Stereo

TOC of the extracted CD

      Track |   Start  |  Length  | Start sector | End sector  
     ---------------------------------------------------------
         1  |  0:00.00 |  1:36.51 |         0    |     7250    
         2  |  1:36.51 |  3:25.72 |      7251    |    22697    
         3  |  5:02.48 |  4:11.08 |     22698    |    41530    
         4  |  9:13.56 |  2:07.62 |     41531    |    51117    
         5  | 11:21.43 |  2:44.26 |     51118    |    63443    
         6  | 14:05.69 |  3:47.30 |     63444    |    80498    
         7  | 17:53.24 |  1:17.22 |     80499    |    86295    
         8  | 19:10.46 |  2:47.08 |     86296    |    98828    
         9  | 21:57.54 |  4:16.24 |     98829    |   118052    
        10  | 26:14.03 |  3:36.29 |    118053    |   134281    
        11  | 29:50.32 |  3:59.19 |    134282    |   152225    
        12  | 33:49.51 |  2:59.73 |    152226    |   165723    
        13  | 36:49.49 |  4:12.13 |    165724    |   184636    

Range status and errors

Selected range

      Filename C:\Documents and Settings\Мои документы\Cheap Trick - The Latest.by.rat.eac.ape.covers.lossless-muz.ucoz.com\Cheap Trick - The Latest.by.rat.eac.ape.covers.lossless-muz.ucoz.wav

      Peak level 100.0 %
      Range quality 100.0 %
      Copy CRC 1AA7F482
      Copy OK

No errors occurred

End of status report

Download

Category: Classic rock | Views: 246 | Added by: Rat | Rating: 0.0/0
Total comments: 0
Only registered users can add comments.
[ Registration | Login ]

«  June 2010  »
SuMoTuWeThFrSa
  12345
6789101112
13141516171819
20212223242526
27282930


  • Israel-club.my1.ru


  • Copyright MyCorp © 2017