Friday, 18.08.2017, 18:31
Welcome Guest | RSS
Main
Registration
Login




Vinyl [7]
Alternative [103]
Jazz [26]
Classic rock [179]
Classical [9]
Hard & Heavy [60]
Mainstream [53]
Hip-Hop [3]
Meditative [11]
New Beats [8]
Progressive [38]
Roots [25]
OST, Campilation [28]
DTS Releases [4]
Dvd Rip [7]
DVD [7]
Lossless HTTP [54]

Rate my site
Total of answers: 17


Total online: 1
Guests: 1
Users: 0

Login form

Main » 2011 » January » 30 » Bullet - Heading for the Top (2006)
18:43
Bullet - Heading for the Top (2006)

Genre: Heavy Metal 
Label: Black Lodge 
Playing time: 41:15 
Format: Eac-Ape

Quote
Wow, talk about a kick back to 1981! This band sounds exactly like a cross between Brian Johnson era AC/DC, Hot Rockin' era Judas Priest, with a little bit of early 80's Scorpions thrown into the mix. Nothing more to say about this CD. The band presents nothing new here but if you could imagine a singer who could probably win an AC/DC vocal contest, with some hard rocking guys belting out early 80's heavy metal with a lot of guts... go for this one! Oh yeah, they are from Sweden!

Tracklist:

Midnight Rider (Riding Free) 
Turn It Up Loud 
Heading For The Top 
Rambling Man 
Hard Luck Lady 
Speeding In The Night 
One Deal With The Devil 
Rock Steady 
Leather Love 
Raise Hell 
Bang Your Head

Code
Exact Audio Copy V0.99 prebeta 4 from 23. January 2008 

EAC extraction logfile from 30. January 2011, 16:50 

Bullet / Heading For The Top 

Used drive  : HL-DT-STDVD-RAM GH22NP20   Adapter: 3  ID: 0 

Read mode               : Secure 
Utilize accurate stream : Yes 
Defeat audio cache      : Yes 
Make use of C2 pointers : No 

Read offset correction                      : 102 
Overread into Lead-In and Lead-Out          : No 
Fill up missing offset samples with silence : Yes 
Delete leading and trailing silent blocks   : No 
Null samples used in CRC calculations       : Yes 
Used interface                    : Installed external ASPI interface 

Used output format : Internal WAV Routines 
Sample format      : 44.100 Hz; 16 Bit; Stereo 

TOC of the extracted CD 

      Track |   Start  |  Length  | Start sector | End sector  
     --------------------------------------------------------- 
         1  |  0:00.00 |  4:03.50 |         0    |    18274    
         2  |  4:03.50 |  3:43.19 |     18275    |    35018    
         3  |  7:46.69 |  3:00.09 |     35019    |    48527    
         4  | 10:47.03 |  2:32.67 |     48528    |    59994    
         5  | 13:19.70 |  3:58.14 |     59995    |    77858    
         6  | 17:18.09 |  3:33.32 |     77859    |    93865    
         7  | 20:51.41 |  4:53.41 |     93866    |   115881    
         8  | 25:45.07 |  3:47.72 |    115882    |   132978    
         9  | 29:33.04 |  3:56.74 |    132979    |   150752    
        10  | 33:30.03 |  2:36.28 |    150753    |   162480    
        11  | 36:06.31 |  5:12.58 |    162481    |   185938    

Range status and errors 

Selected range 

      Filename C:\Documents and Settings\Мои документы\Bullet.-.Heading.For.The.Top.eac.ape.by.rat.lossless-muz.ucoz.com\Bullet.-.Heading.For.The.Top.eac.ape.by.rat.lossless-muz.ucoz.wa v 

      Peak level 100.0 % 
      Range quality 99.9 % 
      Copy CRC CCA1044F 
      Copy OK 

No errors occurred 

   
AccurateRip summary 
   
Track  1  cannot be verified as accurate (confidence 2)  [A4248C68], AccurateRip returned [2CE5DFE1] 
Track  2  cannot be verified as accurate (confidence 2)  [2B9CC084], AccurateRip returned [FEF673D2] 
Track  3  cannot be verified as accurate (confidence 2)  [6F835A27], AccurateRip returned [21A12D15] 
Track  4  cannot be verified as accurate (confidence 2)  [A327091E], AccurateRip returned [A84B0916] 
Track  5  cannot be verified as accurate (confidence 2)  [6E916571], AccurateRip returned [9FC2AA4F] 
Track  6  cannot be verified as accurate (confidence 3)  [37220433], AccurateRip returned [63922BDF] 
Track  7  cannot be verified as accurate (confidence 2)  [3A4AE79D], AccurateRip returned [69406530] 
Track  8  cannot be verified as accurate (confidence 2)  [90954329], AccurateRip returned [EF91F68B] 
Track  9  cannot be verified as accurate (confidence 2)  [B762BBEF], AccurateRip returned [132526AD] 
Track 10  cannot be verified as accurate (confidence 2)  [178C2618], AccurateRip returned [579BF9FE] 
Track 11  cannot be verified as accurate (confidence 2)  [E9509E95], AccurateRip returned [1207AF1F] 
   
No tracks could be verified as accurate 
You may have a different pressing from the one(s) in the database 

End of status report 

For more information you can visit the Bullet web site at: http://www.blacklodge.se.

Download 

Category: Hard & Heavy | Views: 277 | Added by: Rat | Rating: 0.0/0
Total comments: 0
Only registered users can add comments.
[ Registration | Login ]

«  January 2011  »
SuMoTuWeThFrSa
      1
2345678
9101112131415
16171819202122
23242526272829
3031


  • Israel-club.my1.ru


  • Copyright MyCorp © 2017