Sunday, 20.08.2017, 19:06
Welcome Guest | RSS
Main
Registration
Login




Vinyl [7]
Alternative [103]
Jazz [26]
Classic rock [179]
Classical [9]
Hard & Heavy [60]
Mainstream [53]
Hip-Hop [3]
Meditative [11]
New Beats [8]
Progressive [38]
Roots [25]
OST, Campilation [28]
DTS Releases [4]
Dvd Rip [7]
DVD [7]
Lossless HTTP [54]

Rate my site
Total of answers: 17


Total online: 1
Guests: 1
Users: 0

Login form

Main » 2010 » February » 11 » Bruce Turgon (ex- Foreigner) - Outside Looking In (2005)
02:15
Bruce Turgon (ex- Foreigner) - Outside Looking In (2005)

 
Label: Frontiers Records
Release date: November 7th 2005
Cat. #: FR CD 255
Genre: aor, hard rock
Format: eac - flac - covers

Quote
Bruce Turgon is an American bass guitarist, guitarist, vocalist, songwriter, and producer who has played in several bands throughout his career including Foreigner, The Lou Gramm Band, Shadow King, Steve Stevens, Warrior, Black Sheep, and Showcase.


01. Living A Lie [0:03:14.69]
02. Any Other Time [0:04:43.08]
03. Outside Looking In [0:04:38.18]
04. Walk Thru Fire [0:03:38.60]
05. Faith [0:04:06.43]
06. Pleasure Dome [0:04:27.38]
07. These Tears Must Fall [0:04:36.26]
08. Weapons Of Love [0:03:17.07]
09. On A Wing And A Prayer [0:04:51.28]
10. Heart So Strong [0:04:08.20]
11. The Last Time [0:04:16.65]
12. Where Do We Go From Here [0:04:35.19]
Code
Exact Audio Copy V0.99 prebeta 4 from 23. January 2008

EAC extraction logfile from 17. July 2009, 18:15

Bruce Turgon / Outside Looking In

Used drive : Optiarc DVD RW AD-7170A Adapter: 3 ID: 0

Read mode : Secure
Utilize accurate stream : Yes
Defeat audio cache : Yes
Make use of C2 pointers : No

Read offset correction : 48
Overread into Lead-In and Lead-Out : No
Fill up missing offset samples with silence : Yes
Delete leading and trailing silent blocks : No
Null samples used in CRC calculations : Yes
Used interface : Installed external ASPI interface

Used output format : Internal WAV Routines
Sample format : 44.100 Hz; 16 Bit; Stereo

TOC of the extracted CD

Track | Start | Length | Start sector | End sector
---------------------------------------------------------
1 | 0:00.00 | 3:14.69 | 0 | 14618
2 | 3:14.69 | 4:43.08 | 14619 | 35851
3 | 7:58.02 | 4:38.18 | 35852 | 56719
4 | 12:36.20 | 3:38.60 | 56720 | 73129
5 | 16:15.05 | 4:06.43 | 73130 | 91622
6 | 20:21.48 | 4:27.38 | 91623 | 111685
7 | 24:49.11 | 4:36.26 | 111686 | 132411
8 | 29:25.37 | 3:17.07 | 132412 | 147193
9 | 32:42.44 | 4:51.28 | 147194 | 169046
10 | 37:33.72 | 4:08.20 | 169047 | 187666
11 | 41:42.17 | 4:16.65 | 187667 | 206931
12 | 45:59.07 | 4:35.19 | 206932 | 227575

Range status and errors

Selected range

Filename C:\Documents and Settings\Мои документы\Bruce Turgon - Outside Looking Ini.by.rat.eac.flac.covers.Israel-club.my1.ru\Bruce Turgon - Outside Looking Ini.by.rat.eac.flac.covers.Israel-club.my1.ru.wav

Peak level 98.3 %
Range quality 100.0 %
Copy CRC 4D026808
Copy OK

No errors occurred

End of status report



My WebPage
Category: Classic rock | Views: 335 | Added by: Rat | Rating: 0.0/0
Total comments: 0
Only registered users can add comments.
[ Registration | Login ]

«  February 2010  »
SuMoTuWeThFrSa
 123456
78910111213
14151617181920
21222324252627
28


  • Israel-club.my1.ru


  • Copyright MyCorp © 2017