Monday, 26.06.2017, 19:24
Welcome Guest | RSS
Main
Registration
Login




Vinyl [7]
Alternative [103]
Jazz [26]
Classic rock [179]
Classical [9]
Hard & Heavy [60]
Mainstream [53]
Hip-Hop [3]
Meditative [11]
New Beats [8]
Progressive [38]
Roots [25]
OST, Campilation [28]
DTS Releases [4]
Dvd Rip [7]
DVD [7]
Lossless HTTP [54]

Rate my site
Total of answers: 17


Total online: 1
Guests: 1
Users: 0

Login form

Main » 2010 » April » 2 » Brian Setzer - The Knife Feels Like Justice (1986)
14:42
Brian Setzer - The Knife Feels Like Justice (1986)

Artist: Brian Setzer
Album: The Knife Feels Like Justice
Released: 1986
Source: Razor & Tie
Genre: rock
Format: eac.ape

Quote
After the Stray Cats broke up for the first of several times in 1984, guitarist and frontman Brian Setzer seemed determined to prove he could do a lot more than make like Eddie Cochran, and his first solo set was 1986's surprisingly ambitious The Knife Feels Like Justice. Leaving his rockabilly influences at home for the time being, Setzer reinvented himself as a thoughtful heartland rocker on this set, which shows clear influences of Bruce Springsteen and John Mellencamp's work of the period, and his snappy retro guitar work was replaced by the jangly peal of a Rickenbacker, though his fretwork was no less impressive in this new context, especially on the rollicking "Radiation Ranch" and the atmospheric title cut. Setzer also dipped his toes into old-school R&B on "Bobby's Back," and demonstrated a previously unaired concern for social justice on "Maria" and "Aztec"; while Setzer's songwriting wasn't always quite as sharp as the folks he clearly emulated, there's a heart and sincerity to this material that's genuine and affecting, even when his lyrics lean to the obvious. Don Gehman's production dates this set (especially the Lucite-coated sounds of Kenny Aronoff's drums), but it's a rare example of Setzer taking a stab at contemporary rock & roll with a message, and it is more successful than anyone might have expected; it didn't take him long to edge back into the influences of the past on his next few releases, but The Knife Feels Like Justice is evidence that Setzer's muse could have followed other paths and still created something memorable.

# 1
# The Knife Feels Like Justice
# 4:04
#

# 2
# Haunted River
# 3:27
#

# 3
# The Boulevard of Broken Dreams
# 4:13
#

# 4
# Bobby's Back
# 3:34
#

# 5
# Radiation Ranch
# 3:27
#

# 6
# Chains Around Your Heart
# 3:46
#

# 7
# Maria
# 4:01
#

# 8
# Three Guys
# 3:51
#

# 9
# Aztec
# 4:05
#

# 10
# Breath of Life
# 3:28
#

# 11
# Barbwire Fence
# 3:46

Code
Exact Audio Copy V0.99 prebeta 3 from 28. July 2007

EAC extraction logfile from 18. April 2008, 18:53

Brian Setzer / The Knife Feels Like Justice

Used drive  : Optiarc DVD RW AD-7170A   Adapter: 1  ID: 0

Read mode               : Secure
Utilize accurate stream : Yes
Defeat audio cache      : Yes
Make use of C2 pointers : No

Read offset correction                      : 48
Overread into Lead-In and Lead-Out          : No
Fill up missing offset samples with silence : Yes
Delete leading and trailing silent blocks   : No
Null samples used in CRC calculations       : Yes
Used interface                    : Installed external ASPI interface

Used output format : Internal WAV Routines
Sample format      : 44.100 Hz; 16 Bit; Stereo

TOC of the extracted CD

       Track |   Start  |  Length  | Start sector | End sector   
      ---------------------------------------------------------
          1  |  0:00.00 |  4:03.20 |         0    |    18244     
          2  |  4:03.20 |  3:27.55 |     18245    |    33824     
          3  |  7:31.00 |  4:12.55 |     33825    |    52779     
          4  | 11:43.55 |  3:35.70 |     52780    |    68974     
          5  | 15:19.50 |  3:27.13 |     68975    |    84512     
          6  | 18:46.63 |  3:46.42 |     84513    |   101504     
          7  | 22:33.30 |  4:01.55 |    101505    |   119634     
          8  | 26:35.10 |  3:51.52 |    119635    |   137011     
          9  | 30:26.62 |  4:04.22 |    137012    |   155333     
         10  | 34:31.09 |  3:29.09 |    155334    |   171017     
         11  | 38:00.18 |  3:46.32 |    171018    |   187999     

Range status and errors

Selected range

       Filename C:\Brian.Setzer.-.The.Knife.Feels.Like.Justice.rat.eac.ape.covers.Israel-club.my1.ru\Brian.Setzer.-.The.Knife.Feels.Like.Justice.rat.eac.ape  .covers.Israel-club.my1.ru.wav

       Peak level 98.8 %
       Range quality 100.0 %
       Copy CRC 2418C4FD
       Copy OK

No errors occurred

End of status report

My WebPage

Category: Classic rock | Views: 247 | Added by: Rat | Rating: 0.0/0
Total comments: 0
Only registered users can add comments.
[ Registration | Login ]

«  April 2010  »
SuMoTuWeThFrSa
    123
45678910
11121314151617
18192021222324
252627282930


  • Israel-club.my1.ru


  • Copyright MyCorp © 2017