Thursday, 29.06.2017, 04:10
Welcome Guest | RSS
Main
Registration
Login




Vinyl [7]
Alternative [103]
Jazz [26]
Classic rock [179]
Classical [9]
Hard & Heavy [60]
Mainstream [53]
Hip-Hop [3]
Meditative [11]
New Beats [8]
Progressive [38]
Roots [25]
OST, Campilation [28]
DTS Releases [4]
Dvd Rip [7]
DVD [7]
Lossless HTTP [54]

Rate my site
Total of answers: 17


Total online: 1
Guests: 1
Users: 0

Login form

Main » 2010 » April » 2 » Brian Setzer - Rockabilly Riot, Vol. 1 (2005)
11:57
Brian Setzer - Rockabilly Riot, Vol. 1 (2005)


Artist: Ministry
Album: Rockabilly Riot, Vol. 1: A Tribute to Sun Records
Released: 2005
Genre: Rock/Rockabilly Revival
Format: eac.ape

Quote
The concept is stated in the title and the execution is about what you'd expect from one of the most popular rockabilly revivalists in contemporary music. It's not much of a stretch for Stray Cat Brian Setzer to take a break from writing his own rockabilly tunes that often sound like classic Sun material anyway, but by narrowing his focus roughly from 1954 to early 1957 and sticking with music produced by the king of country music record labels, he scores credibility points. The 23-track set is peppered with obvious choices like Carl Perkins' "Blue Suede Shoes" and "Boppin' the Blues" and Johnny Cash's "Get Rhythm," but dominated by more obscure fare from lesser-known acts such as Kenny Parchman, Ernie Barton, and Tommy Blake. Setzer even tracked down Jumpin' Gene Simmons to finish off "Peroxide Blonde in a Hopped Up Model Ford" when part of the original master copy was found to have been erased. Elvis is represented only by "Just Because," a brief nod to the King that also illustrates how many other acts had produced music nearly as vital from the same little room in Memphis. Setzer even calls in the Jordanaires to provide background vocals, bringing even more authenticity to this project. These versions are refreshingly stripped down, with standup bass, skeletal drums, acoustic piano, and occasional sax providing all the instrumental excitement. Even Setzer's fiery guitar solos are lean, mean, and never dominate the songs. He's in terrific form throughout; clearly his heart is in it and it sounds like he's having a blast. Whether listeners need covers that stick so closely to the originals, if with slightly fuller sound, when the real McCoys are easily available is something listeners will have to decide for themselves. Regardless, this is a rollicking, ballad-free, nonstop hour of classic rockabilly that shows how much great music emerged from such a short period, and from only one record label. Setzer fans will be thrilled and those first hearing these songs will want to go back to explore the genre's rich history firsthand.

01. Red Hot [0:02:32.27]
02. Slow Down [0:02:33.45]
03. Real Wild Child [0:02:11.37]
04. Rockhouse [0:02:24.35]
05. Put Your Cat Clothes On [0:02:56.20]
06. Lonely Weekends [0:02:27.45]
07. Get It Off Your Mind [0:02:51.55]
08. Just Because [0:02:38.03]
09. Glad All Over [0:02:06.32]
10. Flatfoot Sam [0:02:21.25]
11. Rock 'N' Roll Ruby [0:03:26.45]
12. Blue Suede Shoes [0:02:41.13]
13. Tennessee Zip [0:02:21.45]
14. Mona Lisa [0:02:31.35]
15. Peroxide Blonde In A Hopped Up Model Ford [0:02:48.22]
16. Get Rhythm [0:02:20.43]
17. Stairway To Nowhere [0:02:19.37]
18. Boppin' The Blues [0:02:54.73]
19. Rakin' And Scrapin' [0:02:20.70]
20. Sweet Woman [0:02:55.27]
21. Flyin' Saucer Rock And Roll [0:02:19.50]
22. Lonely Wolf [0:02:35.41]
23. Red Cadillac And A Black Moustache [0:03:14.12]

Code

Exact Audio Copy V0.99 prebeta 3 from 28. July 2007

EAC extraction logfile from 14. May 2008, 20:20

Brian Setzer / Rockabilly Riot! Vol.One: A Tribute To Sun Records

Used drive  : Optiarc DVD RW AD-7170A   Adapter: 1  ID: 0

Read mode               : Secure
Utilize accurate stream : Yes
Defeat audio cache      : Yes
Make use of C2 pointers : No

Read offset correction                      : 48
Overread into Lead-In and Lead-Out          : No
Fill up missing offset samples with silence : Yes
Delete leading and trailing silent blocks   : No
Null samples used in CRC calculations       : Yes
Used interface                    : Installed external ASPI interface

Used output format : Internal WAV Routines
Sample format      : 44.100 Hz; 16 Bit; Stereo

TOC of the extracted CD

        Track |   Start  |  Length  | Start sector | End sector    
       ---------------------------------------------------------
           1  |  0:00.00 |  2:32.27 |         0    |    11426      
           2  |  2:32.27 |  2:33.45 |     11427    |    22946      
           3  |  5:05.72 |  2:11.37 |     22947    |    32808      
           4  |  7:17.34 |  2:24.35 |     32809    |    43643      
           5  |  9:41.69 |  2:56.20 |     43644    |    56863      
           6  | 12:38.14 |  2:27.45 |     56864    |    67933      
           7  | 15:05.59 |  2:51.55 |     67934    |    80813      
           8  | 17:57.39 |  2:38.03 |     80814    |    92666      
           9  | 20:35.42 |  2:06.32 |     92667    |   102148      
          10  | 22:41.74 |  2:21.25 |    102149    |   112748      
          11  | 25:03.24 |  3:26.45 |    112749    |   128243      
          12  | 28:29.69 |  2:41.13 |    128244    |   140331      
          13  | 31:11.07 |  2:21.45 |    140332    |   150951      
          14  | 33:32.52 |  2:31.35 |    150952    |   162311      
          15  | 36:04.12 |  2:48.22 |    162312    |   174933      
          16  | 38:52.34 |  2:20.43 |    174934    |   185476      
          17  | 41:13.02 |  2:19.37 |    185477    |   195938      
          18  | 43:32.39 |  2:54.73 |    195939    |   209061      
          19  | 46:27.37 |  2:20.70 |    209062    |   219631      
          20  | 48:48.32 |  2:55.27 |    219632    |   232783      
          21  | 51:43.59 |  2:19.50 |    232784    |   243258      
          22  | 54:03.34 |  2:35.41 |    243259    |   254924      
          23  | 56:39.00 |  3:14.12 |    254925    |   269486      

Range status and errors

Selected range

        Filename C:\Brian Brian.Setzer.-.Rockabilly.Riot.Vol.1. A Tribute To ....by.rat.eac.ape.covers.Israel-club.my1.ru\Brian Setzer.-.Rockabilly.Riot.Vol.1. A Tribute To ....by.rat.eac.ape.covers.Israel-club.my1.ru.wav

        Peak level 100.0 %
        Range quality 100.0 %
        Copy CRC F0BA6176
        Copy OK

No errors occurred

End of status report

My WebPage

Category: Classic rock | Views: 241 | Added by: Rat | Rating: 0.0/0
Total comments: 0
Only registered users can add comments.
[ Registration | Login ]

«  April 2010  »
SuMoTuWeThFrSa
    123
45678910
11121314151617
18192021222324
252627282930


  • Israel-club.my1.ru


  • Copyright MyCorp © 2017