Tuesday, 17.10.2017, 22:34
Welcome Guest | RSS
Main
Registration
Login




Vinyl [7]
Alternative [103]
Jazz [26]
Classic rock [179]
Classical [9]
Hard & Heavy [60]
Mainstream [53]
Hip-Hop [3]
Meditative [11]
New Beats [8]
Progressive [38]
Roots [25]
OST, Campilation [28]
DTS Releases [4]
Dvd Rip [7]
DVD [7]
Lossless HTTP [54]

Rate my site
Total of answers: 17


Total online: 1
Guests: 1
Users: 0

Login form

Main » 2011 » July » 23 » Boy George - Ordinary Alien (2cd) (2011)
14:46
Boy George - Ordinary Alien (2cd) (2011)
 

Артист: Boy George 
Альбом: Ordinary Alien, 2011 
Жанр: dance 
Формат файла: eac-flac 
Нахождение: eDonkey
 

Quote
While Ordinary Alien tends to be light on lyrics in spots, you can't help but love the positive beat that runs throughout. As for my favorites, the reworked "Human Racing" is a nice touch, and I have to say that I absolutely am in love with the amped-up "Time Machine." Way to go Boy! Let's not keep your long-time fans waiting so long next time, eh? 


01. Turn 2 Dust [0:05:42.44] 
02. Yes We Can [0:06:32.62] 
03. Brand New [0:05:31.03] 
04. Amazing Grace [0:05:00.36] 
05. Don't Wanna See Myself [0:05:41.04] 
06. If I Were You [0:05:43.07] 
07. Go Your Own Way [0:05:44.55] 
08. Here Come The Girls (Feat. Ave D) [0:05:45.25] 
09. Seconds (Feat. Phiiilip Something) [0:06:22.53] 
10. After Dark [0:06:14.05] 
11. Kill The A&R [0:04:55.47] 
12. Human Racing [0:05:54.04] 
13. Look Pon U [0:04:15.74] 

01. Out Of Fashion [0:06:41.70] 
02. Sanitized [0:07:05.71] 
03. Time Machine [0:06:36.51] 
04. Psychology Of The Dreamer [0:07:02.52] 
05. Ragga Music [0:05:00.43]
 

Code
Exact Audio Copy V1.0 beta 2 from 29. April 2011 

EAC extraction logfile from 23. July 2011, 8:29 

Boy George  /  Ordinary Alien cd1 

Used drive  : HL-DT-STDVD-RAM GH22NP20   Adapter: 0  ID: 0 

Read mode               : Secure 
Utilize accurate stream : Yes 
Defeat audio cache      : Yes 
Make use of C2 pointers : No 

Read offset correction                      : 102 
Overread into Lead-In and Lead-Out          : No 
Fill up missing offset samples with silence : Yes 
Delete leading and trailing silent blocks   : No 
Null samples used in CRC calculations       : Yes 
Used interface                    : Installed external ASPI interface 

Used output format : Internal WAV Routines 
Sample format      : 44.100 Hz; 16 Bit; Stereo 

TOC of the extracted CD 

       Track |   Start  |  Length  | Start sector | End sector   
      --------------------------------------------------------- 
          1  |  0:00.00 |  5:42.00 |         0    |    25649     
          2  |  5:42.00 |  6:32.00 |     25650    |    55049     
          3  | 12:14.00 |  5:31.00 |     55050    |    79874     
          4  | 17:45.00 |  5:00.00 |     79875    |   102374     
          5  | 22:45.00 |  5:41.00 |    102375    |   127949     
          6  | 28:26.00 |  5:43.00 |    127950    |   153674     
          7  | 34:09.00 |  5:44.00 |    153675    |   179474     
          8  | 39:53.00 |  5:45.00 |    179475    |   205349     
          9  | 45:38.00 |  6:22.00 |    205350    |   233999     
         10  | 52:00.00 |  6:14.00 |    234000    |   262049     
         11  | 58:14.00 |  4:55.00 |    262050    |   284174     
         12  | 63:09.00 |  5:54.00 |    284175    |   310724     
         13  | 69:03.00 |  4:15.00 |    310725    |   329849     

Range status and errors 

Selected range 

       Filename K:\Documents and Settings\Мои документы\Boy George  -  Ordinary Alien.2cd.flac.covers.by.rat.lossless-muz.ucoz.com\Boy George  -  Ordinary Alien cd1.wav 

       Peak level 100.0 % 
       Extraction speed 3.1 X 
       Range quality 99.9 % 
       Copy CRC D33F2C3C 
       Copy OK 

No errors occurred 

     
AccurateRip summary 
     
Track  1  not present in database 
Track  2  not present in database 
Track  3  not present in database 
Track  4  not present in database 
Track  5  not present in database 
Track  6  not present in database 
Track  7  not present in database 
Track  8  not present in database 
Track  9  not present in database 
Track 10  not present in database 
Track 11  not present in database 
Track 12  not present in database 
Track 13  not present in database 
     
None of the tracks are present in the AccurateRip database 

End of status report 

Exact Audio Copy V1.0 beta 2 from 29. April 2011 

EAC extraction logfile from 23. July 2011, 9:15 

Boy George / Ordinary Alien cd2 

Used drive  : HL-DT-STDVD-RAM GH22NP20   Adapter: 0  ID: 0 

Read mode               : Secure 
Utilize accurate stream : Yes 
Defeat audio cache      : Yes 
Make use of C2 pointers : No 

Read offset correction                      : 102 
Overread into Lead-In and Lead-Out          : No 
Fill up missing offset samples with silence : Yes 
Delete leading and trailing silent blocks   : No 
Null samples used in CRC calculations       : Yes 
Used interface                    : Installed external ASPI interface 

Used output format : Internal WAV Routines 
Sample format      : 44.100 Hz; 16 Bit; Stereo 

TOC of the extracted CD 

       Track |   Start  |  Length  | Start sector | End sector   
      --------------------------------------------------------- 
          1  |  0:00.00 |  6:41.00 |         0    |    30074     
          2  |  6:41.00 |  7:05.00 |     30075    |    61949     
          3  | 13:46.00 |  6:36.00 |     61950    |    91649     
          4  | 20:22.00 |  7:02.00 |     91650    |   123299     
          5  | 27:24.00 |  5:00.00 |    123300    |   145799     

Range status and errors 

Selected range 

       Filename K:\Documents and Settings\Мои документы\Boy George  -  Ordinary Alien.2cd.flac.covers.by.rat.lossless-muz.ucoz.com\Boy George  -  Ordinary Alien cd2.wav 

       Peak level 100.0 % 
       Extraction speed 1.6 X 
       Range quality 100.0 % 
       Copy CRC 544EC423 
       Copy OK 

No errors occurred 

     
AccurateRip summary 
     
Track  1  not present in database 
Track  2  not present in database 
Track  3  not present in database 
Track  4  not present in database 
Track  5  not present in database 
     
None of the tracks are present in the AccurateRip database 

End of status report


My WebPage
Category: Mainstream | Views: 368 | Added by: Rat | Rating: 0.0/0
Total comments: 0
Only registered users can add comments.
[ Registration | Login ]

«  July 2011  »
SuMoTuWeThFrSa
     12
3456789
10111213141516
17181920212223
24252627282930
31


  • Israel-club.my1.ru


  • Copyright MyCorp © 2017