Sunday, 25.06.2017, 10:50
Welcome Guest | RSS
Main
Registration
Login




Vinyl [7]
Alternative [103]
Jazz [26]
Classic rock [179]
Classical [9]
Hard & Heavy [60]
Mainstream [53]
Hip-Hop [3]
Meditative [11]
New Beats [8]
Progressive [38]
Roots [25]
OST, Campilation [28]
DTS Releases [4]
Dvd Rip [7]
DVD [7]
Lossless HTTP [54]

Rate my site
Total of answers: 17


Total online: 8
Guests: 8
Users: 0

Login form

Main » 2010 » May » 24 » Bliss - Re-thought (1999)
22:11
Bliss - Re-thought (1999)

Artist: BLISS
Album: RE-THOUGHT
Year: 1999
Genre: Heavy/goth metal
Format: EAC.APE.COVERS

Quote
The album 'Re-Thought' finds the band covering DEAD OR ALIVE's 'You Spin Me Right Round' and FINE YOUNG CANNIBALS 'She Drives Me Crazy'.

Tracklist:

01. Lock Down
02. Dark Lovers
03. Cage Me
04. You Spin Me Round
05. Hidden
06. Body Art
07. Night Skin
08. She Drives Me Crazy
09. Upon You
10. Rethought

Code
Exact Audio Copy V0.99 prebeta 3 from 28. July 2007

EAC extraction logfile from 18. September 2007, 10:46

Bliss / Re-Thought

Used drive  : Optiarc DVD RW AD-7170A   Adapter: 1  ID: 0

Read mode               : Secure
Utilize accurate stream : Yes
Defeat audio cache      : Yes
Make use of C2 pointers : No

Read offset correction                      : 48
Overread into Lead-In and Lead-Out          : No
Fill up missing offset samples with silence : Yes
Delete leading and trailing silent blocks   : No
Null samples used in CRC calculations       : Yes
Used interface                    : Installed external ASPI interface

Used output format : Internal WAV Routines
Sample format      : 44.100 Hz; 16 Bit; Stereo

TOC of the extracted CD

       Track |   Start  |  Length  | Start sector | End sector   
      ---------------------------------------------------------
          1  |  0:00.00 |  1:39.10 |         0    |     7434     
          2  |  1:39.10 |  4:40.60 |      7435    |    28494     
          3  |  6:19.70 |  4:48.03 |     28495    |    50097     
          4  | 11:07.73 |  3:24.39 |     50098    |    65436     
          5  | 14:32.37 |  5:15.44 |     65437    |    89105     
          6  | 19:48.06 |  5:35.15 |     89106    |   114245     
          7  | 25:23.21 |  6:05.40 |    114246    |   141660     
          8  | 31:28.61 |  3:53.68 |    141661    |   159203     
          9  | 35:22.54 |  5:41.48 |    159204    |   184826     
         10  | 41:04.27 |  5:04.09 |    184827    |   207635     

Range status and errors

Selected range

       Filename C:\Bliss - Re-Thought.by.rat.eac-ape.HQcovers\Bliss - Re-Thought.by.rat.eac-ape.HQcovers.wav

       Peak level 100.0 %
       Range quality 100.0 %
       Copy CRC DBE6E7D0
       Copy OK

No errors occurred

End of status report

Line Up:
Steffan Pearson - Vocals, Guitar
Jay Richardson - Keyboards, Guitar
Luke Roberts - Bass
Paul Compson - Drums, Programming
Jon Green

bliss

Category: Alternative | Views: 251 | Added by: Rat | Rating: 0.0/0
Total comments: 0
Only registered users can add comments.
[ Registration | Login ]

«  May 2010  »
SuMoTuWeThFrSa
      1
2345678
9101112131415
16171819202122
23242526272829
3031


  • Israel-club.my1.ru


  • Copyright MyCorp © 2017