Thursday, 14.12.2017, 02:11
Welcome Guest | RSS
Main
Registration
Login




Vinyl [7]
Alternative [103]
Jazz [26]
Classic rock [179]
Classical [9]
Hard & Heavy [60]
Mainstream [53]
Hip-Hop [3]
Meditative [11]
New Beats [8]
Progressive [38]
Roots [25]
OST, Campilation [28]
DTS Releases [4]
Dvd Rip [7]
DVD [7]
Lossless HTTP [54]

Rate my site
Total of answers: 17


Total online: 1
Guests: 1
Users: 0

Login form

Main » 2011 » June » 30 » Blancmange - Blanc Burn (2011)
05:59
Blancmange - Blanc Burn (2011)
 

Audio CD (7 Mar 2011) 
Number of Discs: 1 
Label: Proper Records 
Genre: Syntpop
 

Quote
Blancmange - Blanc Burn (Proper) 
Missing-in-action for twenty-five-odd years, Neil Arthur and Stephen Luscombe (Blancmange) return with an album that sounds remarkably like classic Blancmange. Arthur's Lancastrian brogue remains central to their anomalous electronic pop style, and brings both an earthy realism and an indisputable identity to the proceedings. He's also brought some excellent songs with him. Both "The Western" and "By The Bus Stop @ Woolies" wouldn't have sounded out of place on 1982's "Happy Families" collection and "I'm Having A Coffee" is as wonderfully mundane as the title suggests; as is "Don't Forget Your Teeth". 

When it looks as if they're going to get all popstar and celebrity girlfriend on our behinds, it's marginally disappointing to discover that the uncharacteristically titled "Stardiddler" (title changed to save Amazon's blushes) isn't even remotely connected to the Rolling Stones' "Star Star". Apart from that minor frustration, it's all good.


1. By The Bus Stop @ Woolies 03.37 
2. Drive Me 04.15 
3. Ultraviolent 03.37 
4. The Western 03.40 
5. Radio Therapy 04.35 
6. Probably Nothing 05.27 
7. I'm Having A Coffee 03.54 
8. Don't Let These Days 04.20 
9. WDYF 04.32 
10. Don't Forget Your Teeth 04.12 
11. Starfucker 04.41
 

Code
Exact Audio Copy V1.0 beta 2 from 29. April 2011 

EAC extraction logfile from 28. June 2011, 22:42 

Blancmange / Blanc Burn 

Used drive  : HL-DT-STDVD-RAM GH22NP20   Adapter: 0  ID: 0 

Read mode               : Secure 
Utilize accurate stream : Yes 
Defeat audio cache      : Yes 
Make use of C2 pointers : No 

Read offset correction                      : 102 
Overread into Lead-In and Lead-Out          : No 
Fill up missing offset samples with silence : Yes 
Delete leading and trailing silent blocks   : No 
Null samples used in CRC calculations       : Yes 
Used interface                    : Installed external ASPI interface 

Used output format : Internal WAV Routines 
Sample format      : 44.100 Hz; 16 Bit; Stereo 

TOC of the extracted CD 

      Track |   Start  |  Length  | Start sector | End sector  
     --------------------------------------------------------- 
         1  |  0:00.00 |  3:38.00 |         0    |    16349    
         2  |  3:38.00 |  4:14.00 |     16350    |    35399    
         3  |  7:52.00 |  3:37.00 |     35400    |    51674    
         4  | 11:29.00 |  3:39.00 |     51675    |    68099    
         5  | 15:08.00 |  4:34.00 |     68100    |    88649    
         6  | 19:42.00 |  5:27.00 |     88650    |   113174    
         7  | 25:09.00 |  3:54.00 |    113175    |   130724    
         8  | 29:03.00 |  4:19.00 |    130725    |   150149    
         9  | 33:22.00 |  4:32.00 |    150150    |   170549    
        10  | 37:54.00 |  4:11.00 |    170550    |   189374    
        11  | 42:05.00 |  4:41.00 |    189375    |   210449    

Range status and errors 

Selected range 

      Filename K:\Documents and Settings\Мои документы\Blancmange - Blanc Burn.by.rat.eac-ape.lossless-muz.ucoz.com.covers\Blancmange - Blanc Burn.by.rat.eac-ape.lossless-muz.ucoz.com.covers.wav 

      Peak level 100.0 % 
      Extraction speed 2.8 X 
      Range quality 100.0 % 
      Copy CRC 7DA41313 
      Copy OK 

No errors occurred 

   
AccurateRip summary 
   
Track  1  not present in database 
Track  2  not present in database 
Track  3  not present in database 
Track  4  not present in database 
Track  5  not present in database 
Track  6  not present in database 
Track  7  not present in database 
Track  8  not present in database 
Track  9  not present in database 
Track 10  not present in database 
Track 11  not present in database 
   
None of the tracks are present in the AccurateRip database 

End of status report


download
Category: Mainstream | Views: 392 | Added by: Rat | Rating: 0.0/0
Total comments: 0
Only registered users can add comments.
[ Registration | Login ]

«  June 2011  »
SuMoTuWeThFrSa
   1234
567891011
12131415161718
19202122232425
2627282930


  • Israel-club.my1.ru


  • Copyright MyCorp © 2017