Monday, 21.08.2017, 18:01
Welcome Guest | RSS
Main
Registration
Login




Vinyl [7]
Alternative [103]
Jazz [26]
Classic rock [179]
Classical [9]
Hard & Heavy [60]
Mainstream [53]
Hip-Hop [3]
Meditative [11]
New Beats [8]
Progressive [38]
Roots [25]
OST, Campilation [28]
DTS Releases [4]
Dvd Rip [7]
DVD [7]
Lossless HTTP [54]

Rate my site
Total of answers: 17


Total online: 1
Guests: 1
Users: 0

Login form

Main » 2010 » March » 30 » Blackfoot - Rick Medlocke and Blackfoot (1987)
11:22
Blackfoot - Rick Medlocke and Blackfoot (1987)

# Audio CD (February 25, 2003)
# Original Release Date: 1987
# Genre: South/hard/classic rock
# Label: Wounded Bird Records
# Quality: Eac-Flac

Quote

Rick Medlocke And Blackfoot was originally issued in 1987. It was the last album they recorded for Atlantic Records. Fans have been screamin' for this one, so here it is! Wounded Bird Records. 2003.

01. Back On The Streets [0:03:16.32]
02. Saturday Night [0:03:53.40]
03. Closest Thing To Heaven [0:04:06.51]
04. Silent Type [0:04:43.37]
05. Reckless Boy [0:03:25.06]
06. Private Life [0:02:53.02]
07. Liar [0:04:40.02]
08. Steady Rockin' [0:03:50.28]
09. My Wild Romance [0:03:44.65]
10. Rock 'N' Roll Tonight [0:03:37.68]

Code
Exact Audio Copy V0.99 prebeta 4 from 23. January 2008

EAC extraction logfile from 28. March 2010, 15:34

Rick Medlocke and Blackfoot / Rick Medlocke and Blackfoot

Used drive  : Optiarc DVD RW AD-7170A   Adapter: 3  ID: 0

Read mode               : Secure
Utilize accurate stream : Yes
Defeat audio cache      : Yes
Make use of C2 pointers : No

Read offset correction                      : 48
Overread into Lead-In and Lead-Out          : No
Fill up missing offset samples with silence : Yes
Delete leading and trailing silent blocks   : No
Null samples used in CRC calculations       : Yes
Used interface                    : Installed external ASPI interface

Used output format : Internal WAV Routines
Sample format      : 44.100 Hz; 16 Bit; Stereo

TOC of the extracted CD

      Track |   Start  |  Length  | Start sector | End sector  
     ---------------------------------------------------------
         1  |  0:00.00 |  3:16.32 |         0    |    14731    
         2  |  3:16.32 |  3:53.40 |     14732    |    32246    
         3  |  7:09.72 |  4:06.51 |     32247    |    50747    
         4  | 11:16.48 |  4:43.37 |     50748    |    72009    
         5  | 16:00.10 |  3:25.06 |     72010    |    87390    
         6  | 19:25.16 |  2:53.02 |     87391    |   100367    
         7  | 22:18.18 |  4:40.02 |    100368    |   121369    
         8  | 26:58.20 |  3:50.28 |    121370    |   138647    
         9  | 30:48.48 |  3:44.65 |    138648    |   155512    
        10  | 34:33.38 |  3:37.68 |    155513    |   171855    

Range status and errors

Selected range

      Filename C:\Documents and Settings\Мои документы\Blackfoot - Rick Medlocke and Blackfoot.flac.covers.by.rat.lossless-muz.ucoz.com\Blackfoot - Rick Medlocke and Blackfoot.flac.covers.by.rat.lossless-muz.ucoz.wav

      Peak level 98.8 %
      Range quality 100.0 %
      Copy CRC C2B43A6C
      Copy OK

No errors occurred

End of status report

My WebPage

Category: Classic rock | Views: 275 | Added by: Rat | Rating: 0.0/0
Total comments: 0
Only registered users can add comments.
[ Registration | Login ]

«  March 2010  »
SuMoTuWeThFrSa
 123456
78910111213
14151617181920
21222324252627
28293031


  • Israel-club.my1.ru


  • Copyright MyCorp © 2017