Friday, 23.06.2017, 22:51
Welcome Guest | RSS
Main
Registration
Login




Vinyl [7]
Alternative [103]
Jazz [26]
Classic rock [179]
Classical [9]
Hard & Heavy [60]
Mainstream [53]
Hip-Hop [3]
Meditative [11]
New Beats [8]
Progressive [38]
Roots [25]
OST, Campilation [28]
DTS Releases [4]
Dvd Rip [7]
DVD [7]
Lossless HTTP [54]

Rate my site
Total of answers: 17


Total online: 1
Guests: 1
Users: 0

Login form

Main » 2010 » February » 22 » Billy Squier - Emotions in Motion (1982)
13:36
Billy Squier - Emotions in Motion (1982)

Artist: Billy Squier
Album: emotions in motion
Released: by rat
Source: capitol records
Genre: hard rock
Format: eac.ape. 290mb

Quote
Emotions in Motion, the excellent follow-up to Billy Squier's sophomore outing Don't Say No, saw Squier rise from theater headliner to bona fide arena rock sensation by delivering his most consistent solo record to date. Or at least one just as good as its predecessor. On this slice of AOR heaven, Squier expands on the Led Zeppelin-influenced exploits of Don't Say No. Right off the bat, Squier delivers an immediate blow to the head on the album's opening triumvirate "Everybody Wants You," "Emotions in Motion" (a distant cousin of Queen's "Get Down Make Love" no doubt), and the moody "Learn How to Live." Backed by longtime cronies -- drummer Bobby Chouinard, guitarist Jeff Golub, and keyboard player Allan St. John -- Squier effortlessly leads his ace band through the boogie-woogie of future concert staple "Keep Me Satisfied." Squier also takes a few chances by veering into Rolling Stones territory on the horn-laced "Catch 22." Borrowing heavily from "Tumbling Dice," "Catch 22" foreshadows a style that would become more prevalent on future records like Enough Is Enough and Creatures of Habit. Emotions in Motion saw Squier establish himself as a major rock star, embarking on a tour as Queen's support act on their U.S. Hot Space tour. As Queen's popularity in America began to wane, Squier would steal their thunder resulting in a huge headline tour of his own shortly thereafter. Unfortunately, for the Boston rocker, 1984's follow-up Signs of Life would yield the career-suicidal video for "Rock Me Tonite (which features Squier rolling around pink satin sheets) eclipsing the many merits of his earlier works. Interesting side note is the album's cover art. It was commissioned by legendary artist Andy Warhol. ~ John Franck, All Music Guide

Track List:
Everybody Wants You
Emotions In Motion
Learn How To Live
In Your Eyes
Keep Me Satisfied
It Keeps You Rockin'
One Good Woman
She's A Runner
Catch 22
Listen To The Heart

Code
PERFORMER "Billy Squier"
TITLE "Emotions In Motion (1982)"
FILE "Billy Squier - Emotions In Motion (1982).ape" WAVE
     TRACK 01 AUDIO
       TITLE "Everybody Wants You"
       INDEX 01 00:00:00
     TRACK 02 AUDIO
       TITLE "Emotions In Motion"
       INDEX 01 03:46:30
     TRACK 03 AUDIO
       TITLE "Learn How To Live"
       INDEX 01 08:45:03
     TRACK 04 AUDIO
       TITLE "In Your Eyes"
       INDEX 01 12:49:60
     TRACK 05 AUDIO
       TITLE "Keep Me Satisfied"
       INDEX 01 16:36:35
     TRACK 06 AUDIO
       TITLE "It Keeps You Rockin'"
       INDEX 01 20:18:18
     TRACK 07 AUDIO
       TITLE "One Good Woman"
       INDEX 01 24:25:08
     TRACK 08 AUDIO
       TITLE "She's A Runner"
       INDEX 01 28:06:35
     TRACK 09 AUDIO
       TITLE "Catch 22"
       INDEX 01 32:09:53
     TRACK 10 AUDIO
       TITLE "Listen To The Heartbeat"
       INDEX 01 37:13:60

Billy Squier - Emotions In Motion 1982, (cue file only on forum)

Category: Classic rock | Views: 310 | Added by: Rat | Rating: 0.0/0
Total comments: 0
Only registered users can add comments.
[ Registration | Login ]

«  February 2010  »
SuMoTuWeThFrSa
 123456
78910111213
14151617181920
21222324252627
28


  • Israel-club.my1.ru


  • Copyright MyCorp © 2017