Saturday, 21.10.2017, 17:58
Welcome Guest | RSS
Main
Registration
Login




Vinyl [7]
Alternative [103]
Jazz [26]
Classic rock [179]
Classical [9]
Hard & Heavy [60]
Mainstream [53]
Hip-Hop [3]
Meditative [11]
New Beats [8]
Progressive [38]
Roots [25]
OST, Campilation [28]
DTS Releases [4]
Dvd Rip [7]
DVD [7]
Lossless HTTP [54]

Rate my site
Total of answers: 17


Total online: 1
Guests: 1
Users: 0

Login form

Main » 2010 » June » 16 » Bigelf - Cheat The Gallows (2008) (dgpack)
17:44
Bigelf - Cheat The Gallows (2008) (dgpack)


# Audio CD (August 12, 2008)
# Original Release Date: 2008
# Genre: Space/prog/hard rock
# Label: Custard
# Quality: eac-ape

Quote
WOW
this is the most bizarre album ever is this David Bowie Queen Yes The Beatles Black Sabbath some kind of Alice Cooper/Bowie concept album it is so right out of 1973-1975 had this come out in that era this would be called a classic rock masterpiece now that it is 2008 this is just weird although no band would dare attempt this [GOOD JOB DUDES]this is one that will just go over todays youths heads and that is a shame because this is a CLASSIC ALBUM OF ALL TIME
everybody you are missing out for sure

01. Gravest Show On Earth [0:05:00.27]
02. Blackball [0:07:02.55]
03. Money, It's Pure Evil [0:03:18.20]
04. The Evils Of Rock & Roll [0:06:37.18]
05. No Parachute [0:03:43.25]
06. The Game [0:05:11.60]
07. Superstar [0:03:46.55]
08. Race With Time [0:04:28.52]
09. Hydra [0:06:23.30]
10. Counting Sheep [0:11:20.38]

Code
Exact Audio Copy V0.99 prebeta 4 from 23. January 2008

EAC extraction logfile from 15. June 2010, 16:53

Bigelf / Cheat The Gallows

Used drive  : TSSTcorpCD/DVDW SH-W162L   Adapter: 3  ID: 1

Read mode               : Secure
Utilize accurate stream : Yes
Defeat audio cache      : Yes
Make use of C2 pointers : No

Read offset correction                      : 6
Overread into Lead-In and Lead-Out          : No
Fill up missing offset samples with silence : Yes
Delete leading and trailing silent blocks   : No
Null samples used in CRC calculations       : Yes
Used interface                    : Installed external ASPI interface

Used output format : Internal WAV Routines
Sample format      : 44.100 Hz; 16 Bit; Stereo

TOC of the extracted CD

      Track |   Start  |  Length  | Start sector | End sector  
     ---------------------------------------------------------
         1  |  0:00.00 |  5:00.27 |         0    |    22526    
         2  |  5:00.27 |  7:02.55 |     22527    |    54231    
         3  | 12:03.07 |  3:18.20 |     54232    |    69101    
         4  | 15:21.27 |  6:37.18 |     69102    |    98894    
         5  | 21:58.45 |  3:43.25 |     98895    |   115644    
         6  | 25:41.70 |  5:11.60 |    115645    |   139029    
         7  | 30:53.55 |  3:46.55 |    139030    |   156034    
         8  | 34:40.35 |  4:28.52 |    156035    |   176186    
         9  | 39:09.12 |  6:23.30 |    176187    |   204941    
        10  | 45:32.42 | 11:20.38 |    204942    |   255979    

Range status and errors

Selected range

      Filename C:\Documents and Settings\Мои документы\Bigelf - Cheat The Gallows.by.rat.eac.ape.covers.lossless-muz.ucoz.com\Bigelf - Cheat The Gallows.by.rat.eac.ape.covers.lossless-muz.ucoz.wav

      Peak level 99.8 %
      Range quality 100.0 %
      Copy CRC ED1D81E2
      Copy OK

No errors occurred

End of status report

My WebPage

Category: Progressive | Views: 242 | Added by: Rat | Rating: 0.0/0
Total comments: 0
Only registered users can add comments.
[ Registration | Login ]

«  June 2010  »
SuMoTuWeThFrSa
  12345
6789101112
13141516171819
20212223242526
27282930


  • Israel-club.my1.ru


  • Copyright MyCorp © 2017