Thursday, 20.07.2017, 16:33
Welcome Guest | RSS
Main
Registration
Login




Vinyl [7]
Alternative [103]
Jazz [26]
Classic rock [179]
Classical [9]
Hard & Heavy [60]
Mainstream [53]
Hip-Hop [3]
Meditative [11]
New Beats [8]
Progressive [38]
Roots [25]
OST, Campilation [28]
DTS Releases [4]
Dvd Rip [7]
DVD [7]
Lossless HTTP [54]

Rate my site
Total of answers: 17


Total online: 1
Guests: 1
Users: 0

Login form

Main » 2012 » April » 18 » Big Audio Dynamite (ex-Clash) - No. 10, Upping St. (1986)
17:27
Big Audio Dynamite (ex-Clash) - No. 10, Upping St. (1986)
 

Released October 1986 
Genre Alternative Rock/Punk 
Length 59:18 
Label CBS 
Producer Mick Jones & Joe Strummer
 

Quote
No. 10, Upping St. (a pun on 10 Downing St., the residence and office of the Prime Minister of the United Kingdom), is the second album by Big Audio Dynamite, led by former Clash guitarist and songwriter Mick Jones. It was released in 1986 and was co-written and co-produced with Joe Strummer. The album is set to be released in reissued and extended form soon.


1. "C'mon Every Beatbox" Jones/Letts 5:26 
2. "Beyond the Pale" Strummer/Jones 4:41 
3. "Limbo the Law" Strummer/Jones/Donovan 4:44 
4. "Sambadrome" Jones/Letts 4:48 
5. "V. Thirteen" Strummer/Jones 4:54 
6. "Ticket" Strummer/Jones/Letts/Roberts 3:28 
7. "Hollywood Boulevard" Jones/Letts 4:29 
8. "Dial A Hitman" Jones/Letts 5:04 
9. "Sightsee M.C!" Strummer/Jones 4:55 
Bonus tracks 
10. "Ice Cool Killer" (bonus track on the UK and US CD) Strummer/Jones/Donovan 5:33 
11. "The Big V" (bonus track on the UK and US CD) Strummer/Jones/Donovan 4:48 
12. "Badrock City" (bonus track on the US CD) Jones/Letts 7:00
 

Code
Exact Audio Copy V1.0 beta 2 from 29. April 2011 

EAC extraction logfile from 18. April 2012, 13:14 

Big Audio Dynamite / No. 10, Upping St. 

Used drive  : HL-DT-STDVD-RAM GH22NP20   Adapter: 0  ID: 0 

Read mode               : Secure 
Utilize accurate stream : Yes 
Defeat audio cache      : Yes 
Make use of C2 pointers : No 

Read offset correction                      : 102 
Overread into Lead-In and Lead-Out          : No 
Fill up missing offset samples with silence : Yes 
Delete leading and trailing silent blocks   : No 
Null samples used in CRC calculations       : Yes 
Used interface                    : Installed external ASPI interface 

Used output format : Internal WAV Routines 
Sample format      : 44.100 Hz; 16 Bit; Stereo 

TOC of the extracted CD 

      Track |   Start  |  Length  | Start sector | End sector  
     --------------------------------------------------------- 
         1  |  0:00.00 |  5:26.23 |         0    |    24472    
         2  |  5:26.23 |  4:41.00 |     24473    |    45547    
         3  | 10:07.23 |  4:45.30 |     45548    |    66952    
         4  | 14:52.53 |  4:53.65 |     66953    |    88992    
         5  | 19:46.43 |  4:39.00 |     88993    |   109917    
         6  | 24:25.43 |  3:27.47 |    109918    |   125489    
         7  | 27:53.15 |  3:56.55 |    125490    |   143244    
         8  | 31:49.70 |  5:04.63 |    143245    |   166107    
         9  | 36:54.58 |  4:57.35 |    166108    |   188417    
        10  | 41:52.18 |  5:32.25 |    188418    |   213342    
        11  | 47:24.43 |  4:49.62 |    213343    |   235079    
        12  | 52:14.30 |  7:02.58 |    235080    |   266787    

Range status and errors 

Selected range 

      Filename K:\Documents and Settings\Мои документы\Big Audio Dynamite - No. 10, Upping St.flac.by rat.wav\Big Audio Dynamite - No. 10, Upping St.flac.by.rat.wav 

      Peak level 100.0 % 
      Extraction speed 2.8 X 
      Range quality 100.0 % 
      Copy CRC 6F2B51DC 
      Copy OK 

No errors occurred 

   
AccurateRip summary 
   
Track  1  accurately ripped (confidence 6)  [A9FDDFE7]  (AR v1) 
Track  2  accurately ripped (confidence 6)  [00511628]  (AR v1) 
Track  3  accurately ripped (confidence 6)  [30127F96]  (AR v1) 
Track  4  accurately ripped (confidence 6)  [A869501A]  (AR v1) 
Track  5  accurately ripped (confidence 7)  [C3101705]  (AR v1) 
Track  6  accurately ripped (confidence 7)  [BFCC1CCD]  (AR v1) 
Track  7  accurately ripped (confidence 6)  [D625FA4D]  (AR v1) 
Track  8  accurately ripped (confidence 7)  [6CF568B3]  (AR v1) 
Track  9  accurately ripped (confidence 6)  [FA306073]  (AR v1) 
Track 10  accurately ripped (confidence 6)  [833F551A]  (AR v1) 
Track 11  accurately ripped (confidence 6)  [7F32F6CF]  (AR v1) 
Track 12  accurately ripped (confidence 5)  [C35FA6B0]  (AR v1) 
   
All tracks accurately ripped 

End of status report


download
Category: Alternative | Views: 462 | Added by: Rat | Rating: 0.0/0
Total comments: 0
Only registered users can add comments.
[ Registration | Login ]

«  April 2012  »
SuMoTuWeThFrSa
1234567
891011121314
15161718192021
22232425262728
2930


  • Israel-club.my1.ru


  • Copyright MyCorp © 2017