Friday, 23.06.2017, 19:14
Welcome Guest | RSS
Main
Registration
Login




Vinyl [7]
Alternative [103]
Jazz [26]
Classic rock [179]
Classical [9]
Hard & Heavy [60]
Mainstream [53]
Hip-Hop [3]
Meditative [11]
New Beats [8]
Progressive [38]
Roots [25]
OST, Campilation [28]
DTS Releases [4]
Dvd Rip [7]
DVD [7]
Lossless HTTP [54]

Rate my site
Total of answers: 17


Total online: 1
Guests: 1
Users: 0

Login form

Main » 2010 » July » 9 » Bad Company - Hard Rock Live (2010)
15:13
Bad Company - Hard Rock Live (2010)

Artist: Bad Company
Album: Hard Rock Live
YEAR: 2010
Genre: Hard Rock
Qality: EAC_APE

Quote
Live reunion tour concert from Bad Company, featuring Paul Rodgers, Simon Kirke & Mick Ralphs performing a one night only sold-out show at The Hard Rock Live in Hollywood, Florida on August 8, 2008. Featuring 17 hit songs! Bad Company, Honeychild, Sweet Lil' Sister, Burnin' Sky, Gone Gone Gone, Pack, Live For The Music, Seagull, Feel Like Makin', Movin' On, Simple Man, Rock Steady, Shooting Star, Can't Get Enough, R & R Fantasy, Ready 4 Love, Good Lovin' Gone Bad.


01. Bad Company [0:05:48.12]
02. Honey Child [0:03:52.72]
03. Burnin' Sky [0:06:07.19]
04. Gone, Gone, Gone [0:04:41.21]
05. Run With The Pack [0:04:33.26]
06. Live For The Music [0:05:14.35]
07. Seagull [0:04:19.48]
08. Feel Like Makin' Love [0:04:56.07]
09. Movin' On [0:03:21.13]
10. Simple Man [0:04:56.15]
11. Rock Steady [0:04:09.66]
12. Shooting Star [0:05:47.36]
13. Can't Get Enough [0:04:31.44]
14. Rock 'N' Roll Fantasy [0:04:35.45]
15. Ready For Love [0:08:28.19]
16. Good Lovin' Gone Bad [0:04:01.65]

Code

Exact Audio Copy V0.99 prebeta 4 from 23. January 2008

EAC extraction logfile from 6. July 2010, 23:12

Bad Company / Hard Rock Live (2009)

Used drive  : Optiarc DVD RW AD-7170A   Adapter: 3  ID: 0

Read mode               : Secure
Utilize accurate stream : Yes
Defeat audio cache      : Yes
Make use of C2 pointers : No

Read offset correction                      : 48
Overread into Lead-In and Lead-Out          : No
Fill up missing offset samples with silence : Yes
Delete leading and trailing silent blocks   : No
Null samples used in CRC calculations       : Yes
Used interface                    : Installed external ASPI interface

Used output format : Internal WAV Routines
Sample format      : 44.100 Hz; 16 Bit; Stereo

TOC of the extracted CD

      Track |   Start  |  Length  | Start sector | End sector  
     ---------------------------------------------------------
         1  |  0:00.00 |  5:48.12 |         0    |    26111    
         2  |  5:48.12 |  3:52.72 |     26112    |    43583    
         3  |  9:41.09 |  6:07.19 |     43584    |    71127    
         4  | 15:48.28 |  4:41.21 |     71128    |    92223    
         5  | 20:29.49 |  4:33.26 |     92224    |   112724    
         6  | 25:03.00 |  5:14.35 |    112725    |   136309    
         7  | 30:17.35 |  4:19.48 |    136310    |   155782    
         8  | 34:37.08 |  4:56.07 |    155783    |   177989    
         9  | 39:33.15 |  3:21.13 |    177990    |   193077    
        10  | 42:54.28 |  4:56.15 |    193078    |   215292    
        11  | 47:50.43 |  4:09.66 |    215293    |   234033    
        12  | 52:00.34 |  5:47.36 |    234034    |   260094    
        13  | 57:47.70 |  4:31.44 |    260095    |   280463    
        14  | 62:19.39 |  4:35.45 |    280464    |   301133    
        15  | 66:55.09 |  8:28.19 |    301134    |   339252    
        16  | 75:23.28 |  4:01.65 |    339253    |   357392    

Range status and errors

Selected range

      Filename C:\Documents and Settings\Мои документы\Bad Company - Hard Rock Live.by.rat.eac.ape..lossless-muz.ucoz.com\Bad Company - Hard Rock Live.by.rat.eac.ape..lossless-muz.ucoz.wav

      Peak level 100.0 %
      Range quality 100.0 %
      Copy CRC 34C84E23
      Copy OK

No errors occurred

End of status report

DOwnload

Category: Classic rock | Views: 242 | Added by: Rat | Rating: 0.0/0
Total comments: 0
Only registered users can add comments.
[ Registration | Login ]

«  July 2010  »
SuMoTuWeThFrSa
    123
45678910
11121314151617
18192021222324
25262728293031


  • Israel-club.my1.ru


  • Copyright MyCorp © 2017