Sunday, 20.08.2017, 05:53
Welcome Guest | RSS
Main
Registration
Login




Vinyl [7]
Alternative [103]
Jazz [26]
Classic rock [179]
Classical [9]
Hard & Heavy [60]
Mainstream [53]
Hip-Hop [3]
Meditative [11]
New Beats [8]
Progressive [38]
Roots [25]
OST, Campilation [28]
DTS Releases [4]
Dvd Rip [7]
DVD [7]
Lossless HTTP [54]

Rate my site
Total of answers: 17


Total online: 1
Guests: 1
Users: 0

Login form

Main » 2012 » April » 13 » Aztec Camera - Love (1987)
05:49
Aztec Camera - Love (1987)
 

Artis -Aztec Camera 
Title -Love 
Language - English 
Additional info- eac-flac
 

Quote
Love is the third album by Scottish group Aztec Camera, released in November 1987 on the WEA label. 
Love was something of a stylistic departure for the group. Various big-name producers were involved in the recording of the album which, with its radio-friendly hooks and glossy production values was an attempt to break the group in the American market. It failed to do so, but did become Aztec Camera's most commercially successful album in the United Kingdom, where it reached #10 on the albums chart. The single "Somewhere in My Heart" was also the group's most successful, peaking at #3.


1. Deep & Wide & Tall 
2. How Men Are 
3. Everybody Is A Number One 
4. More Than A Law 
5. Somewhere In My Heart 
6. Working In A Goldmine 
7. One And One 
8. Paradise 
9. Killermont Street
 

Code
Exact Audio Copy V1.0 beta 2 from 29. April 2011 

EAC extraction logfile from 12. April 2012, 21:49 

Aztec Camera / Love 

Used drive  : HL-DT-STDVD-RAM GH22NP20   Adapter: 0  ID: 0 

Read mode               : Secure 
Utilize accurate stream : Yes 
Defeat audio cache      : Yes 
Make use of C2 pointers : No 

Read offset correction                      : 102 
Overread into Lead-In and Lead-Out          : No 
Fill up missing offset samples with silence : Yes 
Delete leading and trailing silent blocks   : No 
Null samples used in CRC calculations       : Yes 
Used interface                    : Installed external ASPI interface 

Used output format : Internal WAV Routines 
Sample format      : 44.100 Hz; 16 Bit; Stereo 

TOC of the extracted CD 

      Track |   Start  |  Length  | Start sector | End sector  
     --------------------------------------------------------- 
         1  |  0:00.00 |  4:02.00 |         0    |    18149    
         2  |  4:02.00 |  3:41.61 |     18150    |    34785    
         3  |  7:43.61 |  3:28.02 |     34786    |    50387    
         4  | 11:11.63 |  4:42.47 |     50388    |    71584    
         5  | 15:54.35 |  4:00.10 |     71585    |    89594    
         6  | 19:54.45 |  5:43.41 |     89595    |   115360    
         7  | 25:38.11 |  4:13.37 |    115361    |   134372    
         8  | 29:51.48 |  4:33.55 |    134373    |   154902    
         9  | 34:25.28 |  3:18.26 |    154903    |   169778    

Range status and errors 

Selected range 

      Filename K:\Documents and Settings\Мои документы\Aztec Camera - Love.flac.by.rat\Aztec Camera - Love.flac.by.rat.wav 

      Peak level 100.0 % 
      Extraction speed 2.7 X 
      Range quality 100.0 % 
      Copy CRC 9D92F343 
      Copy OK 

No errors occurred 

   
AccurateRip summary 
   
Track  1  not present in database 
Track  2  not present in database 
Track  3  not present in database 
Track  4  not present in database 
Track  5  not present in database 
Track  6  not present in database 
Track  7  not present in database 
Track  8  not present in database 
Track  9  not present in database 
   
None of the tracks are present in the AccurateRip database 

End of status report


My WebPage
Category: Mainstream | Views: 662 | Added by: Rat | Rating: 0.0/0
Total comments: 1
0   Spam
1 fracanher1965   (30.06.2016 18:41)
muy buen aporte

Only registered users can add comments.
[ Registration | Login ]

«  April 2012  »
SuMoTuWeThFrSa
1234567
891011121314
15161718192021
22232425262728
2930


  • Israel-club.my1.ru


  • Copyright MyCorp © 2017