Saturday, 18.11.2017, 06:18
Welcome Guest | RSS
Main
Registration
Login




Vinyl [7]
Alternative [103]
Jazz [26]
Classic rock [179]
Classical [9]
Hard & Heavy [60]
Mainstream [53]
Hip-Hop [3]
Meditative [11]
New Beats [8]
Progressive [38]
Roots [25]
OST, Campilation [28]
DTS Releases [4]
Dvd Rip [7]
DVD [7]
Lossless HTTP [54]

Rate my site
Total of answers: 17


Total online: 1
Guests: 1
Users: 0

Login form

Main » 2012 » March » 30 » Aztec Camera - Frestonia (1995)
07:49
Aztec Camera - Frestonia (1995)
 

Album: Aztec Camera 
Artist: Frestonia 
Source: WEA 
Realease: 1995 
Genre: New romantics 
Quality: eac-ape-covers
 

Quote
Roddy Frame's last album for the Warner/Reprise stable after 12 years with the company finds him continuing in the low-key vein of 1993's Dreamland. In many ways, Frestonia is akin to contemporaneous albums by Paddy McAloon; like Frame, McAloon had long since given up any idea that his band, Prefab Sprout, was anything but a vehicle for his ideas, and after a third-album stumble (1988's From Langley Park to Memphis, not quite as dire as Aztec Camera's wretched 1987 album, Love), both singer/songwriters had contented themselves with making small records seemingly intended only to please themselves. Frestonia -- with its soft pop exteriors, occasional jazzy flourishes, and mellow acoustic vibe -- is probably the prettiest album of Frame's career. If anything, though, its only virtue is its prettiness, the way that Frame's unfailingly melodic songs slide peacefully out of the speakers, unhampered by any rough edges in the simple, low-key arrangements. The problem is that other than the two bookend tracks, "Sun" and "Sunset," there's little memorable here either lyrically or musically. For an artist whose early work was so substantial, Frestonia is something of a disappointment, albeit an unfailingly nice one. ~ Stewart Mason, All Music Guide


1. Rainy Season 
2. Sun 
3. Crazy 
4. On the Avenue 
5. Imperfectly 
6. Debutante 
7. Beautiful Girl 
8. Phenomenal World 
9. Method of Love 
10. Sunset
 

Code
Exact Audio Copy V0.99 prebeta 3 from 28. July 2007 

EAC extraction logfile from 30. September 2007, 22:10 

Aztec Camera / Frestonia 

Used drive  : TSSTcorpCD/DVDW SH-W162L   Adapter: 1  ID: 1 

Read mode               : Secure 
Utilize accurate stream : Yes 
Defeat audio cache      : Yes 
Make use of C2 pointers : No 

Read offset correction                      : 6 
Overread into Lead-In and Lead-Out          : No 
Fill up missing offset samples with silence : Yes 
Delete leading and trailing silent blocks   : No 
Null samples used in CRC calculations       : Yes 
Used interface                    : Installed external ASPI interface 

Used output format : Internal WAV Routines 
Sample format      : 44.100 Hz; 16 Bit; Stereo 

TOC of the extracted CD 

      Track |   Start  |  Length  | Start sector | End sector  
     --------------------------------------------------------- 
         1  |  0:00.00 |  5:41.30 |         0    |    25604    
         2  |  5:41.30 |  4:28.55 |     25605    |    45759    
         3  | 10:10.10 |  5:19.10 |     45760    |    69694    
         4  | 15:29.20 |  3:43.42 |     69695    |    86461    
         5  | 19:12.62 |  4:22.13 |     86462    |   106124    
         6  | 23:35.00 |  7:10.02 |    106125    |   138376    
         7  | 30:45.02 |  4:50.58 |    138377    |   160184    
         8  | 35:35.60 |  4:09.57 |    160185    |   178916    
         9  | 39:45.42 |  4:23.65 |    178917    |   198706    
        10  | 44:09.32 |  4:21.28 |    198707    |   218309    

Range status and errors 

Selected range 

      Filename C:\Aztec Camera - Frestonia.by.rat.eac.ape.HQcovers\Aztec Camera - Frestonia.by.rat.eac.ape.HQcovers.wav 

      Peak level 100.0 % 
      Range quality 100.0 % 
      Copy CRC 8431D029 
      Copy OK 

No errors occurred 

End of status report


download/
Category: Alternative | Views: 623 | Added by: Rat | Rating: 0.0/0
Total comments: 0
Only registered users can add comments.
[ Registration | Login ]

«  March 2012  »
SuMoTuWeThFrSa
    123
45678910
11121314151617
18192021222324
25262728293031


  • Israel-club.my1.ru


  • Copyright MyCorp © 2017