Friday, 23.06.2017, 22:51
Welcome Guest | RSS
Main
Registration
Login




Vinyl [7]
Alternative [103]
Jazz [26]
Classic rock [179]
Classical [9]
Hard & Heavy [60]
Mainstream [53]
Hip-Hop [3]
Meditative [11]
New Beats [8]
Progressive [38]
Roots [25]
OST, Campilation [28]
DTS Releases [4]
Dvd Rip [7]
DVD [7]
Lossless HTTP [54]

Rate my site
Total of answers: 17


Total online: 1
Guests: 1
Users: 0

Login form

Main » 2010 » February » 5 » ASIA - Fantasia Live in Tokyo [2CD] (2007)
23:39
ASIA - Fantasia Live in Tokyo [2CD] (2007)

<I>Disc: 1 </I>
1. Time again
2. Wildest dreams
3. One step closer
4. Roundabout
5. Without you
6. Cutting it fine
7. Intersection blues
8. Fanfare for the common man
9. The smile has left your eyes

<I>Disc: 2 </I>
1. Don't cry
2. In the court of the crimson king
3. Here comes the feeling
4. Video killed the radio star
5. The heat goes on
6. Only time will tell
7. Sole survivor
8. Ride easy
9. Heat of the moment
</center>
Review by Thom Jurek

Quote
As a band Asia were able to do what few from the prog rock era were able to do: combine streamlined pop hooks into very sophisticated songs that included varying instrumental passages where individual members could stretch a bit. Their chart success -- especially early on -- was formidable. Fantasia: Live in Tokyo is an anniversary concert performed with all the original members: Geoff Downes, Carl Palmer, Steve Howe and John Wetton. Eagle Rock has issued the entire concert, on both on a double-CD as well as DVD. There are 18 cuts here, including the hits as well as tracks by the members' other bands such as "Roundabout" by Yes (that contains guitarist Howe) Downes' "Video Killed the Radio Star" from his stint with the Buggles, and Aaron Copland's "Fanfare for the Common Man," (which was recorded by Emerson, Lake & Palmer). The bookends for this rather indulgent but exciting live show are "Time Again," and, of course, "Heat of the Moment," a live version that 25 years later seems to top the original! For Asia fans, this is a rather indispensable document.

Genre:prog rock
Format:flac.cue.log
Year:2007

Citata:

Code
EAC extraction logfile from 27. June 2007, 17:02 for CD
Asia / Fantasia - Live In Tokyo (CD1)

Used drive : BENQ DVD DD DW1620 Adapter: 3 ID: 1
Read mode : Secure with NO C2, accurate stream, disable cache
Read offset correction : 618
Overread into Lead-In and Lead-Out : No

Used output format : C:\Program Files\FLAC\flac.exe (User Defined Encoder)
128 kBit/s
Additional command line options : -8 -V -T "ARTIST=%a" -T "TITLE=%t" -T "ALBUM=%g" -T "DATE=%y" -T "TRACKNUMBER=%n" -T "GENRE=%m" -T "COMMENT=EAC Flac 1.7.1 -8" %s

Other options :
Fill up missing offset samples with silence : Yes
Delete leading and trailing silent blocks : No
Installed external ASPI interface

Track 1
Filename F:\Music\Asia - Fantasia Live In Tokyo (2007) [FLAC]\CD1\01 - Time Again.wav

Pre-gap length 0:00:02.00

Peak level 98.6 %
Track quality 99.9 %
Test CRC CE1B7803
Copy CRC CE1B7803
Copy OK

Track 2
Filename F:\Music\Asia - Fantasia Live In Tokyo (2007) [FLAC]\CD1\02 - Wildest Dream.wav

Peak level 98.6 %
Track quality 100.0 %
Test CRC 7C4AB51C
Copy CRC 7C4AB51C
Copy OK

Track 3
Filename F:\Music\Asia - Fantasia Live In Tokyo (2007) [FLAC]\CD1\03 - One Step Closer.wav

Peak level 98.6 %
Track quality 100.0 %
Test CRC A3A3C646
Copy CRC A3A3C646
Copy OK

Track 4
Filename F:\Music\Asia - Fantasia Live In Tokyo (2007) [FLAC]\CD1\04 - Roundabout.wav

Peak level 98.6 %
Track quality 100.0 %
Test CRC 760FF703
Copy CRC 760FF703
Copy OK

Track 5
Filename F:\Music\Asia - Fantasia Live In Tokyo (2007) [FLAC]\CD1\05 - Without You.wav

Peak level 98.6 %
Track quality 100.0 %
Test CRC 0ED6C0D2
Copy CRC 0ED6C0D2
Copy OK

Track 6
Filename F:\Music\Asia - Fantasia Live In Tokyo (2007) [FLAC]\CD1\06 - Cutting It Fine.wav

Peak level 98.6 %
Track quality 100.0 %
Test CRC 3DBBE245
Copy CRC 3DBBE245
Copy OK

Track 7
Filename F:\Music\Asia - Fantasia Live In Tokyo (2007) [FLAC]\CD1\07 - Intersection Blues.wav

Peak level 51.4 %
Track quality 100.0 %
Test CRC 1EF4C81E
Copy CRC 1EF4C81E
Copy OK

Track 8
Filename F:\Music\Asia - Fantasia Live In Tokyo (2007) [FLAC]\CD1\08 - Fanfare For Common Man.wav

Peak level 98.6 %
Track quality 100.0 %
Test CRC 9C2467AC
Copy CRC 9C2467AC
Copy OK

Track 9
Filename F:\Music\Asia - Fantasia Live In Tokyo (2007) [FLAC]\CD1\09 - The Smile Has Left Your Eyes.wav

Peak level 89.4 %
Track quality 100.0 %
Test CRC 3C040895
Copy CRC 3C040895
Copy OK

No errors occured

End of status report

=====================

EAC extraction logfile from 27. June 2007, 17:22 for CD
Asia / Fantasia - Live In Tokyo (CD2)

Used drive : BENQ DVD DD DW1620 Adapter: 3 ID: 1
Read mode : Secure with NO C2, accurate stream, disable cache
Read offset correction : 618
Overread into Lead-In and Lead-Out : No

Used output format : C:\Program Files\FLAC\flac.exe (User Defined Encoder)
128 kBit/s
Additional command line options : -8 -V -T "ARTIST=%a" -T "TITLE=%t" -T "ALBUM=%g" -T "DATE=%y" -T "TRACKNUMBER=%n" -T "GENRE=%m" -T "COMMENT=EAC Flac 1.7.1 -8" %s

Other options :
Fill up missing offset samples with silence : Yes
Delete leading and trailing silent blocks : No
Installed external ASPI interface

Track 1
Filename F:\Music\Asia - Fantasia Live In Tokyo (2007) [FLAC]\CD2\01 - Don't Cry.wav

Pre-gap length 0:00:02.00

Peak level 95.7 %
Track quality 100.0 %
Test CRC 8B8712A4
Copy CRC 8B8712A4
Copy OK

Track 2
Filename F:\Music\Asia - Fantasia Live In Tokyo (2007) [FLAC]\CD2\02 - The Court Of Crimson King.wav

Peak level 98.6 %
Track quality 100.0 %
Test CRC 05622737
Copy CRC 05622737
Copy OK

Track 3
Filename F:\Music\Asia - Fantasia Live In Tokyo (2007) [FLAC]\CD2\03 - Here Comes The Feeling.wav

Peak level 98.6 %
Track quality 100.0 %
Test CRC EFE4A5A5
Copy CRC EFE4A5A5
Copy OK

Track 4
Filename F:\Music\Asia - Fantasia Live In Tokyo (2007) [FLAC]\CD2\04 - Video Killed The Radio Star.wav

Peak level 98.6 %
Track quality 100.0 %
Test CRC 88F80D98
Copy CRC 88F80D98
Copy OK

Track 5
Filename F:\Music\Asia - Fantasia Live In Tokyo (2007) [FLAC]\CD2\05 - The Heat Goes On Drum Solo.wav

Peak level 98.6 %
Track quality 100.0 %
Test CRC 88EFE701
Copy CRC 88EFE701
Copy OK

Track 6
Filename F:\Music\Asia - Fantasia Live In Tokyo (2007) [FLAC]\CD2\06 - Only Time Will Tell.wav

Peak level 98.6 %
Track quality 99.9 %
Test CRC 08C765A3
Copy CRC 08C765A3
Copy OK

Track 7
Filename F:\Music\Asia - Fantasia Live In Tokyo (2007) [FLAC]\CD2\07 - Sole Survivor.wav

Peak level 98.6 %
Track quality 100.0 %
Test CRC 472479CA
Copy CRC 472479CA
Copy OK

Track 8
Filename F:\Music\Asia - Fantasia Live In Tokyo (2007) [FLAC]\CD2\08 - Ride Easy.wav

Peak level 90.0 %
Track quality 100.0 %
Test CRC 93546298
Copy CRC 93546298
Copy OK

Track 9
Filename F:\Music\Asia - Fantasia Live In Tokyo (2007) [FLAC]\CD2\09 - Heat Of The Moment.wav

Peak level 98.6 %
Track quality 100.0 %
Test CRC 57D1735F
Copy CRC 57D1735F
Copy OK

No errors occured

End of status report

ASIA

Category: Progressive | Views: 482 | Added by: Rat | Rating: 0.0/0
Total comments: 0
Only registered users can add comments.
[ Registration | Login ]

«  February 2010  »
SuMoTuWeThFrSa
 123456
78910111213
14151617181920
21222324252627
28


  • Israel-club.my1.ru


  • Copyright MyCorp © 2017