Friday, 23.06.2017, 22:51
Welcome Guest | RSS
Main
Registration
Login




Vinyl [7]
Alternative [103]
Jazz [26]
Classic rock [179]
Classical [9]
Hard & Heavy [60]
Mainstream [53]
Hip-Hop [3]
Meditative [11]
New Beats [8]
Progressive [38]
Roots [25]
OST, Campilation [28]
DTS Releases [4]
Dvd Rip [7]
DVD [7]
Lossless HTTP [54]

Rate my site
Total of answers: 17


Total online: 1
Guests: 1
Users: 0

Login form

Main » 2010 » February » 12 » Arturas Anusauskas Jazz Quartet - Feast of Silence (2004)
22:24
Arturas Anusauskas Jazz Quartet - Feast of Silence (2004)

Artist: Artыras Anusauskas Jazz Quartet
Title: Tylos puota (Feast Of Silence)
Styles: Jazz
Type: Album
Label: Tamsta Records, LMSMBCD – 060
Year: 2004
Info: English | Lithuanian

Tracklist:

01. Stiklo karoliuku zaidimas (The Glass Bead Game) (6:46)
(Arturas Anusauskas)
02. Nostalgija (Nostalgia) (8:32)
(Arturas Anusauskas)
03. Upe nuotaka (The River Bride) (6:34)
(Arturas Anusauskas)
04. Oranzinis bliuzas (Blues in Orange) (6:13)
(Arturas Anusauskas)
05. Tokata (Toccata) (3:44)
(Arturas Anusauskas)
06. Tylos puota (Feast of Silence) (7:45)
(Arturas Anusauskas)
07. Not Ethiopia (9:41)
(Michael Brecker)

Studied jazz improvisation in Denmark and Germany (the Berklee College seminars) and currently teaches jazz improvisation at the Lithuanian Academy of Music and Theatre. In 1985, he was the winner of the International Student Piano Improvisation Festival organised by the Academy of Music. Since then, he has played with the most prominent Lithuanian jazz musicians, including Vytautas Labutis, Gediminas Laurinaviиius and the quintet Gone with Jazz (1996), and the Danish vocalist A. Kierulf and the American percussionist Aras Biskis. With his quintet (Mockыnas, Malыnaviиiыtл, Kazakeviиius and Afinogenovas), the winner of the Grand Prix at the Birрtonas Jazz Festival in 1994, he has appeared at jazz festivals in Romania, Minsk and Tallinn, and has given concerts in Italy, Germany, Austria, Switzerland, Sweden, Finland, and elsewhere.

In 1983, Anusauskas began appearing also as a soloist. His major performances include Gershwin‘s Rhapsody in Blue, performed with the Lithuanian State Symphony Orchestra under the baton of Gintaras Rinkeviиius. In 1997, Anusauskas became a laureate of the International Improvisation Competition in Leipzig, winning also a special prize for the best polyphonic improvisation.

Anusauskas has participated in the jazz festivals of Kaunas (1995, 2005), Birрtonas, Vilnius (1996), Montreux (1996, 1998, 2004), Minsk, Bucharest and Kishinev, and has given concerts in Estonia, Russia, Ukraine, Moldova, Poland, Bulgaria, Romania, Germany, Austria, Denmark, Sweden and Finland. For a time, he was artistic director of the international student piano music festival, Jazz Improvisation. He has given master classes in Romania (1994), Moldova (1999, 2001), and at the Sibelius Music Academy in Helsinki (2005), participated in international project HARMOS (2004). In the spring of 2003, he participated in the International Jazz-Transit Festival in Ekaterinburg (Russia), and in the summer that year gave concerts in Moscow, Slovenia and Germany.

The pianist has recorded CDs: Sleeplessness, with the group Gone with Jazz (1996), Jazz Classics (2002) and Feast of Silence (2003) with the Artыras Anusauskas Jazz Quartet as well as participated recording CDs Christmas Flowers (1999), Die Frauen von Kurt Weill (2002), Gipsy Songs and Romances (2002).

Making full use of his academic background, Anusauskas intelligently and inventively, yet at the same time spontaneously, combines of jazz and academic music.

Recorded: 2003 October 8. Vilnius, Lietuvos nacionalinлs filharmonija.
Artыras Anusauskas - piano, Yamaha P-80
Aleksandras Fedotovas - alto saxophone
Eugenijus Kaneviиius - double bass
Darius Rudis - drums

Code
EAC extraction logfile from 16. February 2007, 14:28 for CD
Arturas Anusauskas Jazz Quartet / Tylos puota (Feast of Silence)

Used drive  : _NEC    DVD_RW ND-3500AG   Adapter: 0  ID: 1
Read mode   : Secure with NO C2, accurate stream, disable cache
Read offset correction : 48
Overread into Lead-In and Lead-Out : No

Used output format : C:\Program Files\FLAC\bin\flac.exe   (User Defined Encoder)
                     192 kBit/s
                     Additional command line options : -8 -V -T "ARTIST=%a" -T "TITLE=%t" -T "ALBUM=%g" -T "DATE=%y" -T "TRACKNUMBER=%n" -T "GENRE=%m" -T "COMMENT=EAC Flac 1.1.3 -5" %s

Other options      :           
              Fill up missing offset samples with silence : Yes
              Delete leading and trailing silent blocks : No
              Installed external ASPI interface

Track  1
               Filename L:\UPLOAD\ARTURAS ANUSAUSKAS JAZZ QUARTET\Arturas Anusauskas Jazz Quartet - Tylos puota (Feast of Silence) (2003) [FLAC]\01 - Stiklo karoliuku zaidimas (The Glass Bead Game).wav

               Pre-gap length  0:00:02.00

               Peak level 100.0 %
               Track quality 99.9 %
               Test CRC E65CAE02
               Copy CRC E65CAE02
               Copy OK

Track  2
               Filename L:\UPLOAD\ARTURAS ANUSAUSKAS JAZZ QUARTET\Arturas Anusauskas Jazz Quartet - Tylos puota (Feast of Silence) (2003) [FLAC]\02 - Nostalgija (Nostalgia).wav

               Peak level 100.0 %
               Track quality 100.0 %
               Test CRC 696A115D
               Copy CRC 696A115D
               Copy OK

Track  3
               Filename L:\UPLOAD\ARTURAS ANUSAUSKAS JAZZ QUARTET\Arturas Anusauskas Jazz Quartet - Tylos puota (Feast of Silence) (2003) [FLAC]\03 - Upe nuotaka (The River Bride).wav

               Peak level 100.0 %
               Track quality 100.0 %
               Test CRC 701EBBBC
               Copy CRC 701EBBBC
               Copy OK

Track  4
               Filename L:\UPLOAD\ARTURAS ANUSAUSKAS JAZZ QUARTET\Arturas Anusauskas Jazz Quartet - Tylos puota (Feast of Silence) (2003) [FLAC]\04 - Oranzinis bliuzas (Blues in Orange).wav

               Peak level 100.0 %
               Track quality 100.0 %
               Test CRC 817600A1
               Copy CRC 817600A1
               Copy OK

Track  5
               Filename L:\UPLOAD\ARTURAS ANUSAUSKAS JAZZ QUARTET\Arturas Anusauskas Jazz Quartet - Tylos puota (Feast of Silence) (2003) [FLAC]\05 - Tokata (Toccata).wav

               Peak level 100.0 %
               Track quality 99.9 %
               Test CRC 65A06003
               Copy CRC 65A06003
               Copy OK

Track  6
               Filename L:\UPLOAD\ARTURAS ANUSAUSKAS JAZZ QUARTET\Arturas Anusauskas Jazz Quartet - Tylos puota (Feast of Silence) (2003) [FLAC]\06 - Tylos puota (Feast of Silence).wav

               Peak level 100.0 %
               Track quality 99.9 %
               Test CRC 997B1291
               Copy CRC 997B1291
               Copy OK

Track  7
               Filename L:\UPLOAD\ARTURAS ANUSAUSKAS JAZZ QUARTET\Arturas Anusauskas Jazz Quartet - Tylos puota (Feast of Silence) (2003) [FLAC]\07 - Not Ethiopia.wav

               Peak level 98.5 %
               Track quality 99.9 %
               Test CRC 9ADA95A6
               Copy CRC 9ADA95A6
               Copy OK

No errors occured

End of status report

RIP INFO:
Extractor:
EAC v0.95b3
Codec: WavPack v4.41
Compression Level: normal
Archive Content: EAC/WV/CUE/COVERS/TAGS/ISO & info.txt no unpack needed [en] [ru] [LT]
Rip date: 16. February 2007
Ripper: oak13
Repack: by LLW
Size: 278,86 MB
TT: 49:39

LLW

Category: Jazz | Views: 292 | Added by: Rat | Rating: 0.0/0
Total comments: 0
Only registered users can add comments.
[ Registration | Login ]

«  February 2010  »
SuMoTuWeThFrSa
 123456
78910111213
14151617181920
21222324252627
28


  • Israel-club.my1.ru


  • Copyright MyCorp © 2017