Sunday, 20.08.2017, 19:23
Welcome Guest | RSS
Main
Registration
Login




Vinyl [7]
Alternative [103]
Jazz [26]
Classic rock [179]
Classical [9]
Hard & Heavy [60]
Mainstream [53]
Hip-Hop [3]
Meditative [11]
New Beats [8]
Progressive [38]
Roots [25]
OST, Campilation [28]
DTS Releases [4]
Dvd Rip [7]
DVD [7]
Lossless HTTP [54]

Rate my site
Total of answers: 17


Total online: 1
Guests: 1
Users: 0

Login form

Main » 2010 » February » 12 » ANTIGAMA - Warning (2009)
22:48
ANTIGAMA - Warning (2009)

ANTIGAMA - Warning - 2009

Track list:

01. Disconnected
02. Jealousy
03. City
04. Another
05. Not True
06. War
07. Heartbeat
08. Preachers Pray
09. Sequenzia Dellamorte
10. You Have The Right To Remain Violent
11. Lost Skull
12. Nightmare
13. Paganini Meets Barbapapex
14. Empty Room
15. Orange Pills
16. Black Planet

Quote

After their tour with Fuck The Facts (and the great Dutch Dr. Death!) is is more than obvious : Antigama is here to stay and slay! The new record is everything you can expect, and even more so! Lardy production, cool artwork, great riffs and a shitload of great innovative ideas in this so called narrow genre. I remember someone telling me how narrow the grind scene was. And he even works for this label now! Anyway, speed isn’t everything but the sheer brutality of songs like ‘Disconnected’, ‘Jealousy’, and ‘War’ is eardrum killing and even mind boggling! You can catch your breath in the superb ‘Sequenzia Dellamorte’, but have to listen carefully through the chaos in songs like ‘Heartbeat’. Well, super structured and organized chaos that is.

I never expected Antigama to become this grind machine they are and I happily admit, while I bow my head, I was wrong! An international top band with a killer release. And to top it, a great video to the ‘Disconnected’ song!

Genre : Grindcore
Format : ape.cue.log
Extractor : EAC v0.99 pb4
Codec : MAC v4.05
Size : 244.12 MB

Code
Exact Audio Copy V0.99 prebeta 4 from 23. January 2008

Sprawozdanie ze zgrywania programem EAC z 1. Stycznia 2010, 23:33

Antigama / Warning

Użyty napęd: HL-DT-STDVD-RAM GH22LS30   Adapter: 4  ID: 0

Tryb odczytu:               : Bezpieczny
Dokładny strumień           : Tak
Neutralizacja bufora napędu : Tak
Zwracanie błędów C2         : Nie

Korekta położenia dla odczytu                    : 102
Nadczytywanie w obszarach LeadIn i LeadOut                   : Nie
Dopełnianie ciszą brakujących próbek                         : Tak
Usuwanie początkowych i końcowych bloków ciszy               : Nie
Do przeliczenia sumy kontrolnej CRC używane są próbki zerowe : Nie
Interfejs                    : Wewnętrzny interfejs Win32 dla Windows NT i 2000

Użyty format wyjściowy : Wewnętrzne procedury WAV
Format próbki          : 44.100 Hz; 16 bitów; stereo

TOC zgranej płyty

      Utwór | Początek |  Długość | Sektor początkowy | Sektor końcowy  
     ------------------------------------------------------------------
         1  |  0:00.00 |  1:14.49 |           0       |       5598      
         2  |  1:14.49 |  1:32.74 |        5599       |      12572      
         3  |  2:47.48 |  2:32.02 |       12573       |      23974      
         4  |  5:19.50 |  1:26.71 |       23975       |      30495      
         5  |  6:46.46 |  1:12.14 |       30496       |      35909      
         6  |  7:58.60 |  2:13.10 |       35910       |      45894      
         7  | 10:11.70 |  2:11.71 |       45895       |      55790      
         8  | 12:23.66 |  2:17.03 |       55791       |      66068      
         9  | 14:40.69 |  1:32.05 |       66069       |      72973      
        10  | 16:12.74 |  1:37.55 |       72974       |      80303      
        11  | 17:50.54 |  2:53.23 |       80304       |      93301      
        12  | 20:44.02 |  2:50.00 |       93302       |     106051      
        13  | 23:34.02 |  1:54.30 |      106052       |     114631      
        14  | 25:28.32 |  2:15.23 |      114632       |     124779      
        15  | 27:43.55 |  1:04.53 |      124780       |     129632      
        16  | 28:48.33 |  7:02.00 |      129633       |     161282      

Stan i błędy zakresu

Wybrany zakres

      Ścieżka pliku D:\ANTIGAMA.-.Warning.(2009).(APE).by.MASTODOM.(VelvetUndergroundForum!com)\Antigama - Warning.wav

      Poziom wysterowania 97.0 %
      Jakość zakresu 99.9 %
      CRC kopii     8BAFF72F
      Kopia bezbłędna

Nie było błędów

   
Koniec raportu

DOWNLOAD

Category: Hard & Heavy | Views: 274 | Added by: Rat | Rating: 0.0/0
Total comments: 0
Only registered users can add comments.
[ Registration | Login ]

«  February 2010  »
SuMoTuWeThFrSa
 123456
78910111213
14151617181920
21222324252627
28


  • Israel-club.my1.ru


  • Copyright MyCorp © 2017