Monday, 21.08.2017, 18:00
Welcome Guest | RSS
Main
Registration
Login




Vinyl [7]
Alternative [103]
Jazz [26]
Classic rock [179]
Classical [9]
Hard & Heavy [60]
Mainstream [53]
Hip-Hop [3]
Meditative [11]
New Beats [8]
Progressive [38]
Roots [25]
OST, Campilation [28]
DTS Releases [4]
Dvd Rip [7]
DVD [7]
Lossless HTTP [54]

Rate my site
Total of answers: 17


Total online: 1
Guests: 1
Users: 0

Login form

Main » 2010 » February » 12 » Andrzej Kurylewicz Quintet - 10+8 (Ten+Eight) (1967)
22:44
Andrzej Kurylewicz Quintet - 10+8 (Ten+Eight) (1967)

Artist: Andrzej Kurylewicz Quintet
Album: 10+8 (Ten+Eight)
Released: 1967/2006
Label: Polskie Nagrania
Catalog: XL 0439 / PNCD 1014
Genre: Jazz
Format: EAC-APE-CUE-LOG-HQCovers
Extractor: Exact Audio Copy v0.99pb3
Codec: Monkey's Audio 3.97
Compression: High Lossless
Total Time: 40:53
Ripper: SurowyTato

Legendary recording of Polish Jazz from 1960's featuring Kurylewicz on trombone, Nahorny on alto sax, Perkowski on drums and double bass bill: Ostaszewski and Kozlowski. Special guest star - Wanda Warska - vocal. (chazzforjazz.com)

You may not be able to spell or pronounce this guy's name, but don't let that trouble you -- because the album's a stunner with qualities that go way beyond language! Kurylewicz plays trombone and piano on the record -- and is leading a group here with qualities that echo strongly with the "new thing" era of jazz in the US -- styles that are sometimes skittishly rhythmic, as in the work of Archie Shepp -- or sparely sound textural, as on Tony Williams' beautiful albums for Blue Note. And like the best new thing work of the 60s, the tracks are freely creative, yet never too out -- and nicely remember to swing when the spirit moves them! Highlights include the beautiful "Rondo", which features a bit of vocals by singer Wanda Warska, and the tightly snapping "Juz Ja Z Toba Nie Zostane (aka I Won't Stay With You)". Other tracks include "Requiem For ZC", "10 + 8", and "Twarz Wida". (dustygroove.com)

Tracklist:
1. Juz Ja Z Toba Nie Zostane / I Won't Stay With You [7:04]
2. Requiem Dla Z.C. / Requiem For Z.C. [3:06]
3. 10+8 [10:10]
4. Rondo (Z Filmu TV 'Cyrograf Dojrzalosci') [11:45]
5. Twarz Widza / Spectator's Face [8:45]

Polish Jazz vol. 14
Recorded in Warsaw, October 1967
Recording director: Janusz Urbanski
Recording engineer: Krystyna Urbanska
24-bit remastered from original master tapes XL 0439

Personnel:
Andrzej Kurylewicz - valve trombone, piano, rebela
Wlodzimierz Nahorny - alto sax
Jacek Ostaszewski - bass, tambourine
Janusz Kozlowski - bass
Sergiusz Perkowski - drums
Wanda Warska - vocal

www:
http://www.polishjazz.com/pjs/14.htm
http://www.diapazon.pl/PelnaPlyta.php?Id=6877
http://www.polskienagrania.com.pl/pl.php?o...d1ff710f88cc45e
http://www.chazzforjazz.com/servlet/the-46...INTET-10/Detail

Quote
Exact Audio Copy V0.99 prebeta 3 from 28. July 2007

EAC extraction logfile from 21. January 2008, 12:38

Andrzej Kurylewicz Quintet / 10+8 (Ten+Eight)

Used drive : PLEXTOR DVDR PX-810SA Adapter: 1 ID: 0

Read mode : Secure
Utilize accurate stream : Yes
Defeat audio cache : Yes
Make use of C2 pointers : No

Read offset correction : 48
Overread into Lead-In and Lead-Out : No
Fill up missing offset samples with silence : Yes
Delete leading and trailing silent blocks : No
Null samples used in CRC calculations : Yes
Used interface : Installed external ASPI interface

Used output format : Internal WAV Routines
Sample format : 44.100 Hz; 16 Bit; Stereo

TOC of the extracted CD

Track | Start | Length | Start sector | End sector
---------------------------------------------------------
1 | 0:00.00 | 7:04.55 | 0 | 31854
2 | 7:04.55 | 3:06.38 | 31855 | 45842
3 | 10:11.18 | 10:10.51 | 45843 | 91643
4 | 20:21.69 | 11:45.63 | 91644 | 144581
5 | 32:07.57 | 8:45.46 | 144582 | 184002

Range status and errors

Selected range

Filename E:\INCOMING\EAC\Andrzej Kurylewicz Quintet - 10+8 (Ten+Eight).wav

Peak level 97.7 %
Range quality 100.0 %
Test CRC 31E54966
Copy CRC 31E54966
Copy OK

No errors occurred

End of status report

link

Category: Jazz | Views: 485 | Added by: Rat | Rating: 0.0/0
Total comments: 0
Only registered users can add comments.
[ Registration | Login ]

«  February 2010  »
SuMoTuWeThFrSa
 123456
78910111213
14151617181920
21222324252627
28


  • Israel-club.my1.ru


  • Copyright MyCorp © 2017