Monday, 11.12.2017, 19:11
Welcome Guest | RSS
Main
Registration
Login




Vinyl [7]
Alternative [103]
Jazz [26]
Classic rock [179]
Classical [9]
Hard & Heavy [60]
Mainstream [53]
Hip-Hop [3]
Meditative [11]
New Beats [8]
Progressive [38]
Roots [25]
OST, Campilation [28]
DTS Releases [4]
Dvd Rip [7]
DVD [7]
Lossless HTTP [54]

Rate my site
Total of answers: 17


Total online: 1
Guests: 1
Users: 0

Login form

Main » 2010 » February » 11 » America - Your Move (1983/97) rem+bonus trx
02:20
America - Your Move (1983/97) rem+bonus trx

 
# Genre: soft rock
# Original Release Date: 1983
# Number of Discs: 1
# Label: Magic Records Inc
# Format: eac - flac
Quote
Even though, as other reviewers have already pointed out, this 1983 release includes a lot of input from British producer/arranger/performer and co-writer Russ Ballard, he did a good job of bringing out the best of AMERICA on "Your Move". Who can really blame Gerry Beckley & Dewey Bunnell for giving Russ Ballard another try, after his production "You Can Do Magic" provided them with a huge hit a year before?
Overall, "Your Move" is one of the better AMERICA albums - way better than the uneven 1984 release "Perpective". The standout track "The Border" has all the classic AMERICA elements, as have a handful of other good selections like "Cast the Spirit" or "My Kinda Girl", while two or three weaker tracks clearly show that Gerry B. & Dewey B. were not overly involved in the production. Singer Stephen Bishop adds some nice harmony vocals, by the way.



01. My Kinda Woman [0:03:07.20]
02. She's A Runaway [0:04:08.10]
03. Cast The Spirit [0:03:58.38]
04. Love's Worn Out Again [0:03:32.50]
05. The Border [0:03:58.50]
06. Your Move [0:03:19.02]
07. Honey [0:03:48.55]
08. My Dear [0:04:16.18]
09. Tonight Is For Dreamers [0:03:18.25]
10. Don't Let Me Be Lonely [0:03:23.37]
11. Someday Woman [0:03:51.28]
12. The Last Unicorn [0:03:08.40]
13. Man's Road [0:03:20.42]
14. In The Sea [0:03:16.60]
Code
Exact Audio Copy V0.99 prebeta 4 from 23. January 2008

EAC extraction logfile from 12. August 2009, 16:49

America / Your Move

Used drive : Optiarc DVD RW AD-7170A Adapter: 3 ID: 0

Read mode : Secure
Utilize accurate stream : Yes
Defeat audio cache : Yes
Make use of C2 pointers : No

Read offset correction : 48
Overread into Lead-In and Lead-Out : No
Fill up missing offset samples with silence : Yes
Delete leading and trailing silent blocks : No
Null samples used in CRC calculations : Yes
Used interface : Installed external ASPI interface

Used output format : Internal WAV Routines
Sample format : 44.100 Hz; 16 Bit; Stereo

TOC of the extracted CD

Track | Start | Length | Start sector | End sector
---------------------------------------------------------
1 | 0:00.00 | 3:07.20 | 0 | 14044
2 | 3:07.20 | 4:08.10 | 14045 | 32654
3 | 7:15.30 | 3:58.38 | 32655 | 50542
4 | 11:13.68 | 3:32.50 | 50543 | 66492
5 | 14:46.43 | 3:58.50 | 66493 | 84392
6 | 18:45.18 | 3:19.02 | 84393 | 99319
7 | 22:04.20 | 3:48.55 | 99320 | 116474
8 | 25:53.00 | 4:16.18 | 116475 | 135692
9 | 30:09.18 | 3:18.25 | 135693 | 150567
10 | 33:27.43 | 3:23.37 | 150568 | 165829
11 | 36:51.05 | 3:51.28 | 165830 | 183182
12 | 40:42.33 | 3:08.40 | 183183 | 197322
13 | 43:50.73 | 3:20.42 | 197323 | 212364
14 | 47:11.40 | 3:16.60 | 212365 | 227124

Range status and errors

Selected range

Filename C:\Documents and Settings\Мои документы\America - Your Move.by.rat.flac.ape.covers.Israel-club.my1.ru\America - Your Move.by.rat.flac.ape.covers.Israel-club.my1.ru.wav

Peak level 100.0 %
Range quality 99.9 %
Copy CRC 73EEBF8E
Copy OK

No errors occurred

End of status report


DOWNLOAD
Category: Classic rock | Views: 325 | Added by: Rat | Rating: 0.0/0
Total comments: 0
Only registered users can add comments.
[ Registration | Login ]

«  February 2010  »
SuMoTuWeThFrSa
 123456
78910111213
14151617181920
21222324252627
28


  • Israel-club.my1.ru


  • Copyright MyCorp © 2017