Saturday, 19.08.2017, 13:18
Welcome Guest | RSS
Main
Registration
Login




Vinyl [7]
Alternative [103]
Jazz [26]
Classic rock [179]
Classical [9]
Hard & Heavy [60]
Mainstream [53]
Hip-Hop [3]
Meditative [11]
New Beats [8]
Progressive [38]
Roots [25]
OST, Campilation [28]
DTS Releases [4]
Dvd Rip [7]
DVD [7]
Lossless HTTP [54]

Rate my site
Total of answers: 17


Total online: 1
Guests: 1
Users: 0

Login form

Main » 2010 » February » 11 » America - View From The Ground (1982)
02:22
America - View From The Ground (1982)

 
# Audio CD (March 19, 1996)
# Original Release Date: 1982
# Genre: Soft/pop rock
# Label: One Way Records Inc
# Format: eac-flac
Quote
20 years after its release & this CD still sounds fresh & great. Great songs, should have been hits (Jody, Never Be Lonely+++), lots of great guests: Jeff Porcaro (drums), Christopher Cross, Michael McDonald, Carl Wilson of The Beach Boys. This is 80's pop at its absolute best. Besides the last track being a bit weak, the rest of this release is perfection - my favorite America CD and perhaps their best.


01. You Can Do Magic [0:03:57.35]
02. Never Be Lonely [0:03:59.35]
03. You Girl [0:03:33.37]
04. Inspector Mills [0:05:12.45]
05. Love On The Vine [0:03:21.03]
06. Desperate Love [0:03:59.15]
07. Right Before Your Eyes [0:03:53.30]
08. Jody [0:03:57.07]
09. Sometimes Lovers [0:04:37.55]
10. Even The Score [0:03:36.65]
Code
Exact Audio Copy V0.99 prebeta 4 from 23. January 2008

EAC extraction logfile from 20. September 2009, 9:35

America / View From The Ground

Used drive : Optiarc DVD RW AD-7170A Adapter: 3 ID: 0

Read mode : Secure
Utilize accurate stream : Yes
Defeat audio cache : Yes
Make use of C2 pointers : No

Read offset correction : 48
Overread into Lead-In and Lead-Out : No
Fill up missing offset samples with silence : Yes
Delete leading and trailing silent blocks : No
Null samples used in CRC calculations : Yes
Used interface : Installed external ASPI interface

Used output format : Internal WAV Routines
Sample format : 44.100 Hz; 16 Bit; Stereo

TOC of the extracted CD

Track | Start | Length | Start sector | End sector
---------------------------------------------------------
1 | 0:00.00 | 3:57.35 | 0 | 17809
2 | 3:57.35 | 3:59.35 | 17810 | 35769
3 | 7:56.70 | 3:33.37 | 35770 | 51781
4 | 11:30.32 | 5:12.45 | 51782 | 75226
5 | 16:43.02 | 3:21.03 | 75227 | 90304
6 | 20:04.05 | 3:59.15 | 90305 | 108244
7 | 24:03.20 | 3:53.30 | 108245 | 125749
8 | 27:56.50 | 3:57.07 | 125750 | 143531
9 | 31:53.57 | 4:37.55 | 143532 | 164361
10 | 36:31.37 | 3:36.65 | 164362 | 180626

Range status and errors

Selected range

Filename C:\Documents and Settings\Мои документы\America - View From The Ground.by.rat.eac.flac.covers.Israel-club.my1.ru\America - View From The Ground.by.rat.eac.flac.covers.Israel-club.my1.ru.wav

Peak level 88.8 %
Range quality 100.0 %
Copy CRC 5705DE05
Copy OK

No errors occurred

End of status report


Download
Category: Classic rock | Views: 291 | Added by: Rat | Rating: 0.0/0
Total comments: 0
Only registered users can add comments.
[ Registration | Login ]

«  February 2010  »
SuMoTuWeThFrSa
 123456
78910111213
14151617181920
21222324252627
28


  • Israel-club.my1.ru


  • Copyright MyCorp © 2017