Tuesday, 24.10.2017, 13:25
Welcome Guest | RSS
Main
Registration
Login




Vinyl [7]
Alternative [103]
Jazz [26]
Classic rock [179]
Classical [9]
Hard & Heavy [60]
Mainstream [53]
Hip-Hop [3]
Meditative [11]
New Beats [8]
Progressive [38]
Roots [25]
OST, Campilation [28]
DTS Releases [4]
Dvd Rip [7]
DVD [7]
Lossless HTTP [54]

Rate my site
Total of answers: 17


Total online: 1
Guests: 1
Users: 0

Login form

Main » 2010 » February » 12 » America - Perspective (1984)
21:58
America - Perspective (1984)

Released September 21, 1984
Recorded 1984
Genre Pop-rock
Label Capitol Records
Format eac-flac

Quote
Perspective is the twelfth original studio album by American folk rock duo America, released by Capitol Records in September 1984.

This album only peaked at 185 on the Billboard album chart. It includes two minor hit singles: "Special Girl" which reached 106 on the Billboard singles chart and 16 on the Adult Contemporary chart; and "Can't Fall Asleep To A Lullabye" which hit 26 on the Adult Contemporary chart. This would be America's last new studio album for a decade.


01. We Got All Night [0:03:27.37]
02. See How The Love Goes [0:03:17.13]
03. Can't Fall Asleep To A Lullabye [0:03:46.55]
04. Special Girl [0:03:47.22]
05. 5th Avenue [0:03:47.53]
06. (It's Like You) Never Left At All [0:03:25.15]
07. Stereo [0:03:21.42]
08. Lady With A Bluebird [0:03:07.38]
09. Cinderella [0:03:57.40]
10. Unconditional Love [0:03:07.67]
11. Fallin' Off The World [0:03:30.55]

Code
Exact Audio Copy V0.99 prebeta 4 from 23. January 2008

EAC extraction logfile from 3. November 2009, 13:11

America / Perspective

Used drive  : Optiarc DVD RW AD-7170A   Adapter: 3  ID: 0

Read mode               : Secure
Utilize accurate stream : Yes
Defeat audio cache      : Yes
Make use of C2 pointers : No

Read offset correction                      : 48
Overread into Lead-In and Lead-Out          : No
Fill up missing offset samples with silence : Yes
Delete leading and trailing silent blocks   : No
Null samples used in CRC calculations       : Yes
Used interface                    : Installed external ASPI interface

Used output format : Internal WAV Routines
Sample format      : 44.100 Hz; 16 Bit; Stereo

TOC of the extracted CD

       Track |   Start  |  Length  | Start sector | End sector   
      ---------------------------------------------------------
          1  |  0:00.00 |  3:27.37 |         0    |    15561     
          2  |  3:27.37 |  3:17.13 |     15562    |    30349     
          3  |  6:44.50 |  3:46.55 |     30350    |    47354     
          4  | 10:31.30 |  3:47.22 |     47355    |    64401     
          5  | 14:18.52 |  3:47.53 |     64402    |    81479     
          6  | 18:06.30 |  3:25.15 |     81480    |    96869     
          7  | 21:31.45 |  3:21.42 |     96870    |   111986     
          8  | 24:53.12 |  3:07.38 |    111987    |   126049     
          9  | 28:00.50 |  3:57.40 |    126050    |   143864     
         10  | 31:58.15 |  3:07.67 |    143865    |   157956     
         11  | 35:06.07 |  3:30.55 |    157957    |   173761     

Range status and errors

Selected range

       Filename C:\Documents and Settings\Мои документы\America -   
Perspective.by.rat.flac.ape.covers.Israel-club.my1.ru\America -   
Perspective.by.rat.flac.ape.covers.Israel-club.my1.ru.wav

       Peak level 89.7 %
       Range quality 99.9 %
       Copy CRC 93EBB6B2
       Copy OK

No errors occurred

End of status report

Download

Category: Classic rock | Views: 375 | Added by: Rat | Rating: 0.0/0
Total comments: 0
Only registered users can add comments.
[ Registration | Login ]

«  February 2010  »
SuMoTuWeThFrSa
 123456
78910111213
14151617181920
21222324252627
28


  • Israel-club.my1.ru


  • Copyright MyCorp © 2017