Friday, 23.06.2017, 22:50
Welcome Guest | RSS
Main
Registration
Login




Vinyl [7]
Alternative [103]
Jazz [26]
Classic rock [179]
Classical [9]
Hard & Heavy [60]
Mainstream [53]
Hip-Hop [3]
Meditative [11]
New Beats [8]
Progressive [38]
Roots [25]
OST, Campilation [28]
DTS Releases [4]
Dvd Rip [7]
DVD [7]
Lossless HTTP [54]

Rate my site
Total of answers: 17


Total online: 1
Guests: 1
Users: 0

Login form

Main » 2010 » February » 21 » Aldo Nova - A Portrait of Aldo Nova (1991)
17:56
Aldo Nova - A Portrait of Aldo Nova (1991)

# Artist: Aldo Nova
# Year: 1991
# Styles: Hard'n'heavy, AOR
# Album: A Portrait of Aldo Nova
# Format: eac-ape.covers

Quote
For those of you who are Aldo Nova fans, this is a great collection. For those of you who are not familiar with Aldo, this is the CD to get. It covers all of his biggest tracks and only a handful of great ones are missing in action.

While Fantasy put Aldo on the map back in the early 80's, this unbelievably talented songwriter/singer/guitarist/bassist/keyboard player/drummer kept on pumping out great tunes like Monkey On Your Back, All Night Long, Lay Your Love on Me and Rumours of You (all included). While none of his Blood on the Bricks material or recent release, Nova's Dream, is on this album, it is well worth picking up.

If you like this one, round out your Aldo Nova collection with his debut, Aldo Nova, then Subject, followed by his third effort, Twitch. Also, Blood on the Bricks is a great one to get (if you can find it).

01. Fantasy [0:05:04.22]
02. Hot Love [0:03:55.58]
03. It's Too Late [0:03:21.57]
04. Ball And Chain [0:04:02.50]
05. Heart To Heart [0:03:42.33]
06. Foolin' Yourself [0:03:35.47]
07. Under The Gun [0:03:47.53]
08. See The Light [0:03:56.62]
09. Armageddon (Race Cars)/Armageddon [0:03:12.45]
10. Monkey On Your Back [0:04:36.33]
11. Hey Operator [0:03:55.65]
12. Africa (Primal Love)/Hold Back The Night [0:05:28.37]
13. All Night Long [0:03:42.03]
14. Always Be Mine [0:04:11.37]
15. Victim Of A Broken Heart [0:04:16.50]
16. Rumours Of You [0:04:55.73]
17. Tonight (Lift Me Up) [0:04:14.57]
18. Lay Your Love On Me [0:04:01.20]

Code
Exact Audio Copy V0.99 prebeta 3 from 28. July 2007

EAC extraction logfile from 4. December 2008, 14:57

Aldo Nova / A Portrait of Aldo Nova

Used drive  : TSSTcorpCD/DVDW SH-W162L   Adapter: 3  ID: 1

Read mode               : Secure
Utilize accurate stream : Yes
Defeat audio cache      : Yes
Make use of C2 pointers : No

Read offset correction                      : 6
Overread into Lead-In and Lead-Out          : No
Fill up missing offset samples with silence : Yes
Delete leading and trailing silent blocks   : No
Null samples used in CRC calculations       : Yes
Used interface                    : Installed external ASPI interface

Used output format : Internal WAV Routines
Sample format      : 44.100 Hz; 16 Bit; Stereo

TOC of the extracted CD

       Track |   Start  |  Length  | Start sector | End sector   
      ---------------------------------------------------------
          1  |  0:00.00 |  5:04.22 |         0    |    22821     
          2  |  5:04.22 |  3:55.58 |     22822    |    40504     
          3  |  9:00.05 |  3:21.57 |     40505    |    55636     
          4  | 12:21.62 |  4:02.50 |     55637    |    73836     
          5  | 16:24.37 |  3:42.33 |     73837    |    90519     
          6  | 20:06.70 |  3:35.47 |     90520    |   106691     
          7  | 23:42.42 |  3:47.53 |    106692    |   123769     
          8  | 27:30.20 |  3:56.62 |    123770    |   141531     
          9  | 31:27.07 |  3:12.45 |    141532    |   155976     
         10  | 34:39.52 |  4:36.33 |    155977    |   176709     
         11  | 39:16.10 |  3:55.65 |    176710    |   194399     
         12  | 43:12.00 |  5:28.37 |    194400    |   219036     
         13  | 48:40.37 |  3:42.03 |    219037    |   235689     
         14  | 52:22.40 |  4:11.37 |    235690    |   254551     
         15  | 56:34.02 |  4:16.50 |    254552    |   273801     
         16  | 60:50.52 |  4:55.73 |    273802    |   295999     
         17  | 65:46.50 |  4:14.57 |    296000    |   315106     
         18  | 70:01.32 |  4:01.20 |    315107    |   333201     

Range status and errors

Selected range

       Filename C:\Aldo Nova - A Portrait of Aldo Nova.by.rat.eac.ape.covers.Israel-club.my1.ru\Aldo Nova - A Portrait of Aldo Nova.by.rat.eac.ape.covers.Israel-club.my1.ru.wav

       Peak level 97.7 %
       Range quality 99.9 %
       Copy CRC E9EA14BD
       Copy OK

No errors occurred

End of status report

DOWNLOAD

Category: Classic rock | Views: 333 | Added by: Rat | Rating: 0.0/0
Total comments: 0
Only registered users can add comments.
[ Registration | Login ]

«  February 2010  »
SuMoTuWeThFrSa
 123456
78910111213
14151617181920
21222324252627
28


  • Israel-club.my1.ru


  • Copyright MyCorp © 2017